<?xml version="1.0" standalone="no"?>
<!DOCTYPE svg PUBLIC "-//W3C//DTD SVG 1.1//EN" "http://www.w3.org/Graphics/SVG/1.1/DTD/svg11.dtd" >
<svg xmlns="http://www.w3.org/2000/svg">
<metadata>
This is a custom SVG font generated by IcoMoon.
<iconset grid="32"></iconset>
</metadata>
<defs>
<font id="fontic-hotel" horiz-adv-x="1024" >
<font-face units-per-em="1024" ascent="960" descent="-64" />
<missing-glyph horiz-adv-x="1024" />
<glyph class="hidden" unicode="&#xf000;" d="M0,960L 1024 -64L0 -64 z" horiz-adv-x="0" />
<glyph unicode="&#xe000;" d="M 703.936,739.84c-10.080,24.736-24.864,47.488-43.872,67.552c-11.392,12-31.584,12.384-43.328,0.864
		c-5.952-5.76-9.312-13.504-9.44-21.824c-0.192-8.384, 2.88-16.256, 8.576-22.176c 13.728-14.56, 24.288-30.816, 31.424-48.32
		c 7.040-17.248, 10.624-35.424, 10.624-54.048c0-16-2.688-31.744-7.904-46.816c-5.312-15.2-13.216-29.696-23.52-43.008
		c-5.056-6.56-7.328-14.752-6.336-23.008s 5.056-15.616, 11.488-20.736c 5.408-4.32, 12.096-6.688, 18.976-6.688
		c 9.472,0, 18.24,4.32, 24.128,11.936c 14.432,18.688, 25.568,39.136, 33.12,60.8c 7.616,21.824, 11.456,44.576, 11.456,67.488
		C 719.328,688.672, 714.176,714.848, 703.936,739.84zM 842.368,661.92c0,39.36-7.936,77.888-23.584,114.432c-15.52,36.256-38.144,69.376-67.232,98.304
		c-11.616,11.552-31.872,11.424-43.328-0.384c-5.76-5.952-8.864-13.76-8.8-22.112c 0.064-8.32, 3.328-16.128, 9.184-21.952
		c 23.424-23.328, 41.6-49.824, 53.984-78.752c 12.224-28.512, 18.4-58.688, 18.4-89.568c0-28.064-5.152-55.68-15.328-82.016
		c-10.272-26.56-25.472-51.36-45.088-73.632c-11.232-12.736-10.112-32.448, 2.464-43.872c 5.6-5.12, 12.832-7.872, 20.416-7.872
		c 8.672,0, 16.992,3.744, 22.816,10.304c 24.64,27.936, 43.616,59.008, 56.512,92.384C 835.776,590.848, 842.368,626.080, 842.368,661.92zM 945.376,812.544c-20.992,48-51.424,91.328-90.432,128.928c-11.808,11.36-32.096,10.88-43.392-1.056
		c-11.584-12.448-11.136-32.192, 1.088-44.064c 33.248-32, 59.072-68.736, 76.768-109.12c 17.472-39.808, 26.272-81.952, 26.272-125.312
		c0-40.448-7.744-79.936-23.008-117.504c-15.424-37.888-38.112-72.928-67.456-104.192c-11.584-12.384-11.136-32.128, 1.088-44
		c 5.728-5.504, 13.216-8.576, 21.12-8.576c 8.384,0, 16.448,3.552, 22.208,9.696c 34.528,36.736, 61.376,78.24, 79.712,123.36
		c 18.4,45.248, 27.744,92.736, 27.744,141.184C 977.12,713.792, 966.432,764.544, 945.376,812.544zM 408.16,764.288c 5.664,5.952, 8.704,13.824, 8.544,22.176c-0.128,8.32-3.488,16.064-9.408,21.824
		c-11.712,11.488-31.904,11.136-43.328-0.864c-19.008-20.064-33.76-42.816-43.872-67.552c-10.208-24.992-15.392-51.2-15.392-77.952
		c0-22.944, 3.84-45.696, 11.488-67.488c 7.52-21.696, 18.656-42.112, 33.088-60.8c 5.888-7.616, 14.688-11.936, 24.16-11.936
		c 6.848,0, 13.568,2.368, 18.944,6.688c 6.464,5.12, 10.528,12.512, 11.52,20.736c 0.928,8.256-1.312,16.448-6.368,23.008
		c-10.304,13.312-18.176,27.808-23.488,43.008c-5.248,15.072-7.936,30.816-7.936,46.816c0,18.624, 3.616,36.8, 10.656,54.048
		C 383.84,733.472, 394.432,749.728, 408.16,764.288zM 258.368,579.904c-10.176,26.304-15.36,53.952-15.36,82.016c0,30.88, 6.176,61.056, 18.4,89.568
		c 12.384,28.928, 30.528,55.424, 54.016,78.752c 5.856,5.824, 9.088,13.632, 9.152,21.952c 0.064,8.384-3.072,16.192-8.8,22.112
		C 304.352,886.080, 284.064,886.208, 272.448,874.656C 243.36,845.728, 220.736,812.608, 205.216,776.352C 189.568,739.776, 181.632,701.28, 181.632,661.92
		c0-35.808, 6.624-71.072, 19.616-104.672c 12.864-33.376, 31.904-64.448, 56.512-92.384c 5.824-6.56, 14.112-10.304, 22.848-10.304
		c 7.52,0, 14.784,2.752, 20.416,7.872c 12.576,11.424, 13.696,31.136, 2.432,43.872C 283.808,528.544, 268.64,553.344, 258.368,579.904zM 131.328,544.416c-15.296,37.568-23.040,77.056-23.040,117.504c0,43.36, 8.832,85.504, 26.304,125.312
		c 17.696,40.384, 43.488,77.12, 76.736,109.12C 223.616,908.224, 224.096,927.968, 212.48,940.416C 201.152,952.352, 180.864,952.832, 169.088,941.472
		c-39.040-37.632-69.472-80.928-90.464-128.928c-21.056-48-31.744-98.752-31.744-150.624c0-48.448, 9.344-95.936, 27.776-141.184
		c 18.336-45.12, 45.152-86.624, 79.712-123.36c 5.76-6.112, 13.824-9.696, 22.176-9.696c 7.936,0, 15.424,3.072, 21.12,8.576
		c 12.256,11.872, 12.704,31.616, 1.12,44C 169.44,471.456, 146.752,506.528, 131.328,544.416zM 612,656.416c0,52.256-41.696,94.624-93.184,94.624c-51.424,0-93.12-42.368-93.12-94.624
		c0-41.312, 26.112-76.32, 62.464-89.248L 409.28-52.16c-0.672-5.312, 3.104-5.248, 8.32-5.248l 196.832,0 c 5.248,0, 8.96-0.064, 8.256,5.248
		l-82.688,618.752C 581.248,576.352, 612,611.584, 612,656.416z"  />
<glyph unicode="&#xe001;" d="M 608.832,601.216c 58.816,144.992-69.056,343.808-69.056,343.808L 154.112,945.024 c0,0-118.080-194.88-58.208-337.344
		c 24.576-58.464, 85.184-128.416, 235.232-135.648l0-73.28 c-16.224-7.488-27.584-23.68-27.584-42.688s 11.36-35.328, 27.584-42.688l0-336.928 L 138.528-23.552 
		c-13.248,0-24-15.36-24-31.872c0-2.24, 0.224-8.576, 0.64-8.576l 478.048,0 c 0.32,0, 0.576,6.304, 0.576,8.576
		c0,16.512-10.752,31.872-23.936,31.872L 371.52-23.552 L 371.52,313.824 c 15.776,7.552, 26.72,23.552, 26.72,42.24c0,18.624-10.944,34.624-26.72,42.24l0,73.376 
		C 524.32,475.712, 585.6,543.84, 608.832,601.216z M 179.712,884.448l 335.264,0 c 18.848-40.32, 50.048-101.952, 54.4-173.76
		c-10.72-8.992-21.792-18.304-33.344-26.432c-52.672-36.544-136.288-41.696-197.376-29.632c-18.848,3.712-133.952,39.36-204.832,51.2
		C 133.568,779.456, 163.776,844.128, 179.712,884.448zM 960.832,601.216c 58.784,137.184-69.088,343.808-69.088,343.808l-282.080-1.312c 190.976-336.32-33.056-458.368-29.504-460.512
		c 12.64-7.552, 71.712-9.696, 102.944-11.2l0-73.28 c-16.192-7.488-27.552-23.68-27.552-42.688s 11.36-35.328, 27.552-42.688l0-336.928 l-44.768,0 
		c 11.776-11.872, 13.696-26.048, 12.704-40.448l 294.112,0 c 0.384,0, 0.608,6.304, 0.608,8.576c0,16.512-10.752,31.872-23.936,31.872l-198.304,0 L 723.52,313.824 
		c 15.776,7.552, 26.72,23.552, 26.72,42.24c0,18.624-10.944,34.624-26.72,42.24l0,73.376 C 876.288,475.712, 936.416,544.256, 960.832,601.216z"  />
<glyph unicode="&#xe002;" d="M 757.184,242.656l0-30.656 l 202.112,0 l0,30.656 c0,117.664-46.656,184.384-86.368,219.648c-74.24,65.984-163.392,65.888-194.688,65.888
		l-45.696-0.32l0,98.048 l-101.792,0 L 530.752,724.736 l-82.080,0 l0-98.816 l-97.28,0 l0-99.712 L 275.456,525.76l0-202.816 l 415.808,0.544
		C 757.984,323.456, 757.184,261.536, 757.184,242.656zM 949.824,165.472l-179.488,0 c-18.176,0-32.864-15.168-32.864-33.344l0-55.008 c0-18.176, 14.688-33.216, 32.864-33.216l 179.488,0 
		c 18.176,0, 32.32,15.040, 32.32,33.216l0,55.008 C 982.112,150.304, 968,165.472, 949.824,165.472zM 363.776,698.368c 31.136,0, 56.736,26.368, 61.344,52.192l 130.816,0 c 4.608-25.824, 30.176-52.192, 61.376-52.192
		c 34.368,0, 62.304,28.16, 62.304,62.592s-27.936,62.24-62.304,62.24c-28.928,0-53.024-16.416-60.064-46.816l-133.44,0 
		c-7.040,30.4-31.136,46.848-60.032,46.848c-34.432,0-62.304-27.744-62.304-62.144C 301.44,726.656, 329.344,698.368, 363.776,698.368zM 491.584,841.44c-23.744,0-43.008-17.92-44.128-42.24l 88.288,0 C 534.592,823.52, 515.328,841.44, 491.584,841.44zM 210.080,679.488c0,18.272-14.816,33.056-33.056,33.056L 110.944,712.544 c-18.24,0-33.056-14.784-33.056-33.056l0-529.6 
		c0-18.24, 14.816-33.056, 33.056-33.056l 66.080,0 c 18.24,0, 33.056,14.816, 33.056,33.056L 210.080,679.488 z"  />
<glyph unicode="&#xe003;" d="M 85.472,688l0-680.544 c0-35.648, 29.184-64.832, 64.832-64.832L 895.68-57.376 c 35.616,0, 64.8,29.184, 64.8,64.832L 960.48,688 L 85.472,688 z
			 M 524.32,91.136c-131.968,0-239.008,107.008-239.008,239.040c0,132, 107.040,238.976, 239.008,238.976c 132.032,0, 238.976-107.008, 238.976-238.976
			C 763.328,198.112, 656.384,91.136, 524.32,91.136zM 524.32,520.544c-105.152,0-190.4-85.248-190.4-190.368c0-105.152, 85.28-190.432, 190.4-190.432
			c 105.216,0, 190.4,85.28, 190.4,190.432C 714.72,435.296, 629.536,520.544, 524.32,520.544z M 524.32,189.696c-77.6,0-140.448,62.848-140.448,140.48
			c0,77.536, 62.848,140.448, 140.448,140.448c 77.6,0, 140.448-62.912, 140.448-140.448C 664.768,252.544, 601.952,189.696, 524.32,189.696zM 574.784,347.584c-22.656,3.232-41.056,17.472-63.36,20.832c-51.648,7.808-71.296-18.304-95.776-56.032
			c 13.728-46.912, 56.608-81.312, 107.904-81.312c 62.4,0, 112.928,50.496, 112.928,112.864c0,4.704-0.864,9.152-1.344,13.728
			C 615.264,349.408, 594.336,344.832, 574.784,347.584zM 895.68,947.264L 150.304,947.264 c-35.648,0-64.832-29.184-64.832-64.8l0-129.632 l 875.008,0 L 960.48,882.432 
			C 960.512,918.080, 931.328,947.264, 895.68,947.264z M 312.352,817.632L 182.688,817.632 L 182.688,882.432 l 129.664,0 L 312.352,817.632 z M 474.4,817.632l-97.248,0 L 377.152,882.432 l 97.248,0 L 474.4,817.632 z"  />
<glyph unicode="&#xe004;" d="M 510.144,379.136c 129.856,0, 235.040,105.344, 235.040,235.328c0,55.072-18.976,105.632-50.624,145.728
		C 673.28,742.976, 623.36,726.4, 506.112,726.4c-110.592,0-160.832,13.824-183.936,29.44c-29.632-39.424-47.232-88.32-47.232-141.408
		C 274.944,484.448, 380.192,379.136, 510.144,379.136zM 1017.248-64l-0.256,130.336c0,0, 13.472,261.6-263.904,261.6L 272.448,327.936 c-267.328,0-265.376-241.344-265.696-261.6L 6.784-64
		l 184.544,0 l 0.128,64.096c0,11.2, 9.44,31.424, 40.032,32.512c0,0, 39.52,1.632, 39.52-38.24L 271.072-64l 215.52,0 
		c 6.784,7.648, 16.64,12.512, 27.648,12.512s 20.864-4.832, 27.648-12.512l 212.704,0 l 0.064,58.272c0,39.936, 40.064,38.304, 40.064,38.304
		c 30.56-1.056, 39.552-21.376, 39.552-32.704L 834.272-64 L 1017.248-64 z M 514.24,13.792c-20.448,0-37.056,16.576-37.056,37.056c0,20.416, 16.608,36.992, 37.056,36.992
		c 20.48,0, 37.024-16.608, 37.024-36.992C 551.296,30.336, 534.72,13.792, 514.24,13.792z M 514.24,153.184c-20.448,0-37.056,16.576-37.056,37.056
		c0,20.448, 16.608,36.96, 37.056,36.96c 20.48,0, 37.024-16.544, 37.024-36.96C 551.296,169.76, 534.72,153.184, 514.24,153.184zM 371.904,928.16A131.136,24.768 180 1 1 634.176,928.16A131.136,24.768 180 1 1 371.904,928.16zM 506.112,761.248c 93.568,0, 169.376,14.144, 169.376,31.872c0,0.384-0.16,110.784-0.16,110.784
		C 668.672,896.96, 651.84,891.168, 626.752,886.4c-32.256-6.080-75.136-9.504-120.64-9.504c-45.568,0-88.352,3.392-120.64,9.504
		c-25.088,4.736-41.856,10.56-48.544,17.472l-0.224-110.752C 338.272,773.216, 413.472,761.248, 506.112,761.248z"  />
<glyph unicode="&#xe005;" d="M 92.224,824.128A79.072,79.072 180 1 1 250.368,824.1279999999999A79.072,79.072 180 1 1 92.224,824.1279999999999zM 341.728,639.936c0,0, 4.512,88.032-88.704,88.032L 91.456,727.968 c-89.92,0-89.248-81.248-89.344-88.032l 0.032-250.432
			c 1.408-13.536, 14.784-28.8, 31.328-28.8c 16.48,0, 28.64,14.976, 30.112,28.512L 64.192,617.6c0,3.744, 3.2,10.56, 13.44,10.944
			c0,0, 13.312,0.544, 13.312-12.896l 0.736-625.504c 2.048-20.288, 16.352-27.84, 34.048-27.84c 17.568,0, 31.968,7.552, 34.016,27.84L 158.944,349.888
			c0,3.744, 4.224,9.952, 13.568,10.496c 9.28-0.576, 13.568-6.752, 13.568-10.496L 184.672-9.888c 2.112-20.288, 16.416-27.84, 33.984-27.84
			c 17.632,0, 32,7.552, 34.080,27.84l 0.768,625.504c0,13.44, 13.76,12.896, 13.76,12.896c 10.24-0.384, 13.568-7.2, 13.568-10.976l0-228.064 
			c 1.376-13.536, 13.568-28.8, 30.048-28.8c 16.544,0, 29.952,15.296, 31.328,28.8L 341.728,639.936zM 684.384,821.472A78.784,78.784 180 1 1 841.952,821.472A78.784,78.784 180 1 1 684.384,821.472zM 1019.872,456.448l-117.152,219.52c-2.816,5.024-26.144,46.304-86.752,46.656l-118.56-0.352
			c-58.816,3.2-83.2-41.312-85.952-46.304l-117.152-219.904c-5.088-12.608-0.544-32.064, 14.048-39.84c 14.496-7.712, 32.192-0.128, 39.808,11.072
			l 96.832,179.52c 0.064-0.032, 0.064,0, 0.128-0.032c 3.424,6.432, 10.016,10.976, 17.76,10.976c 10.88,0, 19.68-8.576, 20.256-19.36l 0.064-29.184
			l-105.408-316.032l 105.728,0.192l 0.32-262.944c 2.048-20.192, 16.384-27.616, 33.952-27.616c 17.504,0, 31.808,7.008, 33.92,27.2l-0.608,262.432l 12,0 
			l-0.608-262.432c 2.080-20.192, 16.352-27.424, 33.92-27.424s 31.808,7.52, 33.888,27.744l 0.32,263.008l 105.76-0.192l-105.376,316.096L 831.008,598.4 
			c 0.512,10.816, 9.312,19.36, 20.288,19.36c 7.776,0, 14.304-4.512, 17.728-10.944c 0.064,0, 0.128,0.032, 0.192,0.032l 96.8-179.456
			c 7.616-11.264, 25.344-18.72, 39.808-11.008C 1020.352,424.16, 1024.896,443.808, 1019.872,456.448zM 452.864-5.824c0-17.472-11.328-31.776-25.184-31.776c-13.824,0-25.152,14.304-25.152,31.776L 402.528,852.576 
		c0,17.472, 11.328,31.808, 25.152,31.808c 13.856,0, 25.184-14.304, 25.184-31.808L 452.864-5.824 z"  />
<glyph unicode="&#xe006;" d="M 522.848,910.144c-3.328,16-11.136,27.328-20.32,27.328c-9.248,0-17.12-11.552-20.352-27.808
	C 241.344,897.184, 44.736,712.608, 6.144,473.152c 1.248-0.064, 2.496-0.128, 3.712-0.224c 28.864,59.584, 86.816,100.256, 153.696,100.256
	c 76.096,0, 140.736-52.704, 163.936-125.984c 2.624,0.128, 82.336,115.488, 161.216,126.848l-2.784-487.040c0-3.072-0.48-6.368-1.12-10.048
	c-3.104-41.952-40-74.688-82.528-74.24c-44.288,0.448-80.704,36.672-80.288,80.992c 0.064,7.872-0.384,7.872-0.384,7.872
	c 1.888,8.064-7.040,14.688-19.52,14.688c-12.48,0-23.84-6.496-25.024-14.56c0,0-0.032,0-0.128-7.552c-0.672-68.672, 54.4-124.864, 123.072-125.632
	c 68.672-0.672, 126.656,54.112, 127.328,122.752c 0.032,4.928-0.224,5.248-0.224,5.248c-0.064,0.672, 0.384,1.248, 0.384,1.888L 527.488,572.704 
	c 78.88-5.248, 163.072-123.136, 164.768-123.2c 23.808,72.096, 87.456,123.648, 162.784,123.648c 66.048,0, 123.2-39.68, 152.384-98.080
	c 0.864,0.48, 1.76,0.8, 2.624,1.216C 969.632,718.016, 767.84,903.040, 522.848,910.144z"  />
<glyph unicode="&#xe007;" d="M 973.024,743.872L 609.92,743.872 c-4.64,8.864-10.656,18.528-17.856,26.496l 184.832,143.2
	c 14.24,11.040, 21.312,25.792, 15.84,32.864c-5.536,7.104-21.664,3.872-35.936-7.168l-190.496-147.84c-16.672,10.080-36.224,15.84-57.216,15.84
	c-18.976,0-36.832-4.8-52.448-13.184L 269.536,939.232C 255.328,950.272, 239.168,953.44, 233.632,946.336C 228.16,939.296, 235.264,924.448, 249.44,913.376l 180.128-139.328
	c-8.672-8.896-15.808-19.84-21.216-30.176L 50.912,743.872 c-19.936,0-35.936-16.832-35.936-36.8l0-733.152 c0-19.968, 16-35.968, 35.936-35.968l 922.112,0 
	c 19.936,0, 36,16, 36,35.968L 1009.024,707.072 C 1009.024,727.040, 992.96,743.872, 973.024,743.872z M 517.408-9.248c-24.384,0-44.096,19.712-44.096,44.128
	s 19.712,44.16, 44.096,44.16c 24.416,0, 44.128-19.744, 44.128-44.16S 541.824-9.248, 517.408-9.248z M 921.632,137.952L 102.368,137.952 L 102.368,665.312 l 819.264,0 L 921.632,137.952 z"  />
<glyph unicode="&#xe008;" d="M 959.936,419.264c-42.112,24.672-356.96,217.952-356.96,218.56L 602.976,680.32 c0,29.824, 1.696,40.16-39.456,40.16l-31.104,0 L 532.416,732.224 
		c0,15.392-6.304,28.512-14.72,30.56c-0.096,0.128, 0.064,0.48,0,0.48c-0.192,0-0.384,0-0.64,0c-0.48,0-0.992-0.16-1.472-0.16
		c-0.288,0-0.544-0.192-0.8-0.224c-39.936,1.6-71.872,34.432-71.872,74.72c0,41.248, 33.536,74.816, 74.784,74.816
		c 26.176,0, 49.184-13.536, 62.528-33.92c-2.304-4.032-3.712-8.672-3.712-13.696c0-15.072, 12.288-27.296, 27.296-27.296
		c 15.040,0, 27.264,12.224, 27.264,27.264c0,13.728-10.208,25.056-23.424,26.976c-18.368,30.624-51.616,51.232-89.888,51.232
		c-58.080,0-105.44-47.328-105.44-105.472c0-51.424, 37.152-94.4, 86.016-103.616c-0.032-0.512-0.032-1.056-0.032-1.664l0-11.744 l-41.344,0 
		c-29.888,0-37.76-6.848-37.76-36.672l0-45.984 c0-1.12-316.224-194.080-358.016-218.56c-64.608-37.888-23.712-99.136-23.712-99.136l 229.952-0.064l0-243.072 
		l 489.568,0 l0,243.136 L 990.432,320C 990.432,320, 1024.512,381.376, 959.936,419.264z M 851.808,387.136c-0.192,0-41.472,0.32-94.944,0.736l0,24.736 L 267.328,412.608 
		l0-24.8 c-53.44-0.384-91.040-0.672-91.264-0.672c-30.112,0-29.408,15.68-4.096,27.2c 0.064,0,0,0.128, 0.064,0.128
		c 4.448,2.208, 245.888,113.376, 262.464,121.952c 28.128,14.464, 125.184,14.464, 153.312,0c 16.576-8.576, 262.944-123.904, 263.072-123.968
		C 877.44,398.368, 871.616,387.136, 851.808,387.136zM 267.328,27.808L 756.896,27.808L 756.896-47.008L 267.328-47.008z"  />
<glyph unicode="&#xe009;" d="M 151.040,478.016A69.792,85.696 180 1 1 290.624,478.016A69.792,85.696 180 1 1 151.040,478.016zM 1016.416,641.312l-0.352,0 c-6.4,149.792-100.576,269.056-215.392,269.056c-17.856,0-35.168-3.072-51.744-8.576L 184.864,745.376
		c-101.92-21.152-179.808-130.688-179.808-262.304c0-146.688, 96.736-266.016, 215.68-266.016c 13.248,0, 26.144,1.568, 38.72,4.384l 0.608-0.352l 132.32,36.352
		l 7.392-251.392l 16.704-5.376c 63.584-20.576, 113.664-28.512, 153.92-28.512c 83.36,0, 124.96,34.144, 158.304,61.504c 13.952,11.424, 25.984,21.28, 39.040,27.2
		c 100.896,45.6, 219.936,25.536, 221.088,25.28l 30.080-5.248L 1016.416,641.312z M 55.84,483.072C 55.84,604.928, 129.824,704, 220.736,704
		c 87.104,0, 158.56-90.88, 164.512-205.568l 0.384-14.304c0-0.384,0-0.704,0-1.056c0-121.856-73.92-220.864-164.864-220.864
		C 129.824,262.176, 55.84,361.216, 55.84,483.072z M 745.984,104.544c-19.264-8.672-35.072-21.728-50.368-34.24
		c-43.072-35.328-91.648-75.232-246.016-29.088l-10.4,313.152l 42.496,11.104l-8.992,31.104l-34.56-9.024l-2.432,73.824
		c 0.48,7.2, 0.768,14.432, 0.768,21.76c0,108.928-53.376,202.816-129.6,243.904c 137.216,38.176, 457.216,127.2, 470.016,130.016l-0.096,0.128
		c 7.072,1.632, 18.432,4.864, 23.872,4.864c 89.568,0, 162.464-102.976, 164.736-230.752c 0.064-0.032, 0.16-0.16, 0.288-0.192l 0.512-105.248
		l-24.384-6.4l 8.96-31.104l 15.584,4.064l 1.664-355.072C 921.856,141.216, 830.112,142.496, 745.984,104.544zM 754.144,470.272L 763.136,439.2L 856.928,463.712L 847.968,494.848 	zM 566.464,421.12L 575.488,389.984L 669.28,414.56L 660.32,445.696 	z"  />
<glyph unicode="&#xe00a;" d="M 92.256,841.824A79.072,79.072 180 1 1 250.4,841.824A79.072,79.072 180 1 1 92.256,841.824zM 341.76,657.632c0,0, 4.512,88.032-88.672,88.032L 91.488,745.664 c-89.952,0-89.248-81.216-89.344-88.032l 0.032-250.432
			c 1.44-13.536, 14.784-28.8, 31.328-28.8c 16.512,0, 28.64,14.976, 30.112,28.512l 0.608,228.416c0,3.744, 3.232,10.56, 13.44,10.944
			c0,0, 13.28,0.544, 13.28-12.896l 0.736-625.504c 2.048-20.288, 16.384-27.84, 34.048-27.84c 17.568,0, 31.936,7.552, 34.016,27.84L 158.976,367.552
			c0,3.744, 4.224,9.952, 13.6,10.496c 9.248-0.576, 13.568-6.752, 13.568-10.496L 184.672,7.808c 2.112-20.288, 16.448-27.84, 34.016-27.84
			c 17.632,0, 32,7.552, 34.048,27.84l 0.8,625.504c0,13.44, 13.76,12.896, 13.76,12.896c 10.24-0.384, 13.568-7.2, 13.568-10.976l0-228.064 
			c 1.376-13.536, 13.568-28.8, 30.048-28.8c 16.544,0, 29.952,15.296, 31.328,28.8L 341.76,657.632zM 684.416,839.168A78.784,78.784 180 1 1 841.984,839.168A78.784,78.784 180 1 1 684.416,839.168zM 1019.904,474.112l-117.152,219.488c-2.816,5.024-26.144,46.304-86.752,46.688l-118.56-0.384
			c-58.816,3.2-83.2-41.28-85.952-46.304l-117.152-219.872c-5.088-12.608-0.544-32.064, 14.048-39.84c 14.496-7.712, 32.224-0.16, 39.776,11.104
			l 96.864,179.488c 0.064,0, 0.064,0, 0.128,0c 3.424,6.432, 10.016,10.944, 17.76,10.944c 10.88,0, 19.68-8.576, 20.256-19.328l 0.064-29.152
			l-105.44-316.064l 105.76,0.192l 0.32-262.944c 2.048-20.192, 16.384-27.616, 33.952-27.616c 17.504,0, 31.808,7.008, 33.92,27.2l-0.608,262.432l 12,0 
			l-0.608-262.432c 2.080-20.192, 16.352-27.424, 33.92-27.424s 31.808,7.52, 33.888,27.744l 0.32,263.008l 105.76-0.192l-105.376,316.128l0,29.12 
			c 0.512,10.816, 9.312,19.36, 20.288,19.36c 7.776,0, 14.304-4.512, 17.728-10.944c 0.064,0, 0.128,0.064, 0.192,0.064l 96.8-179.456
			c 7.616-11.264, 25.344-18.72, 39.808-11.040C 1020.384,441.856, 1024.928,461.504, 1019.904,474.112zM 452.864,11.872c0-17.472-11.328-31.776-25.152-31.776c-13.824,0-25.152,14.304-25.152,31.776L 402.56,870.24 
		c0,17.504, 11.328,31.808, 25.152,31.808c 13.856,0, 25.152-14.304, 25.152-31.808L 452.864,11.872 z"  />
<glyph unicode="&#xe00b;" d="M 659.232,213.696c-13.952,5.28-28.928,8.544-44.736,8.544c-58.016,0-106.336-39.040-121.664-92.064
			c 16.64-9.984, 35.872-16.064, 56.64-16.064C 606.72,114.080, 653.44,157.92, 659.232,213.696zM 690.016,196.8c-13.152-65.664-71.2-115.264-140.608-115.264c-22.336,0-43.2,5.568-62.048,14.72
			c0-0.448-0.128-0.832-0.128-1.28c0-70.24, 56.96-127.232, 127.232-127.232s 127.2,56.96, 127.2,127.232
			C 741.664,136.8, 721.216,173.632, 690.016,196.8zM 680.416,957.248c-186.048,0-336.864-150.784-336.864-336.864c0-153.824-6.048-237.76, 13.76-283.52l-99.808-101.888L 244.352,245.44
		c-17.024,12.256-32.096-9.28-53.6-31.328L 16.32,34.88c-29.76-30.464, 19.040-73.984, 19.040-73.984s 40.288-44.576, 70.016-14.208l 173.152,176.704
		c 20.064,20.512, 45.344,39.104, 31.744,58.144l-15.008,16.416l 98.944,100.928c 45.28-20.896, 129.6-15.328, 286.208-15.328
		c 186.016,0, 336.832,150.784, 336.832,336.8C 1017.248,806.464, 866.432,957.248, 680.416,957.248z M 407.744,624.736l 74.56,74.528l 74.528-74.528l-74.528-74.56
		L 407.744,624.736z M 459.328,527.2l-35.456-35.424c-15.424,30.688-25.728,64.384-29.248,100.16L 459.328,527.2z M 396.096,659.040
		c 4.608,34.208, 15.040,66.592, 30.624,95.904l 32.64-32.672L 396.096,659.040z M 602.848,624.736l 74.56,74.528l 74.56-74.528l-74.56-74.56L 602.848,624.736z
		 M 751.968,429.664l-74.56-74.56l-74.56,74.56l 74.56,74.528L 751.968,429.664z M 602.848,819.808l 74.56,74.56l 74.56-74.56l-74.56-74.528L 602.848,819.808z
		 M 700.416,722.272l 74.528,74.56l 74.56-74.56l-74.56-74.56L 700.416,722.272z M 711.968,905.824c 34.624-3.808, 67.296-13.92, 97.056-28.896l-34.080-34.080
		L 711.968,905.824z M 579.84,842.816l-32.16,32.16c 28.832,15.072, 60.544,25.248, 94.080,29.76L 579.84,842.816z M 654.4,722.272l-74.56-74.56l-74.56,74.56
		l 74.56,74.56L 654.4,722.272z M 579.84,601.76l 74.56-74.56l-74.56-74.56l-74.56,74.56L 579.84,601.76z M 651.904,334.624
		c-39.552,3.904-76.736,15.84-109.952,34.144l 37.888,37.888L 651.904,334.624z M 774.944,406.656l 39.968-39.936
		c-33.952-18.048-71.968-29.312-112.32-32.448L 774.944,406.656z M 700.416,527.2l 74.528,74.56l 74.56-74.56l-74.56-74.56L 700.416,527.2z
		 M 797.952,624.736l 74.528,74.528l 74.56-74.528l-74.56-74.56L 797.952,624.736z M 966.464,598.176c-3.040-39.616-14.016-76.992-31.488-110.496
		l-39.488,39.488L 966.464,598.176z M 895.456,722.272l 36.576,36.544c 17.824-32.32, 29.568-68.448, 33.76-106.848L 895.456,722.272z M 914.080,786.912
		L 872.48,745.28l-74.528,74.528l 40.384,40.384C 867.904,840.672, 893.536,815.712, 914.080,786.912z M 518.848,857.888l 38.016-38.048L 482.304,745.28
		l-38.208,38.176C 464.256,812.64, 489.568,837.92, 518.848,857.888z M 440.608,462.464l 41.696,41.728l 74.528-74.528l-42.944-43.008
		C 485.056,407.232, 460.128,432.864, 440.608,462.464z M 843.456,384.128l-45.536,45.536l 74.528,74.528l 45.376-45.312
		C 897.888,429.6, 872.608,404.256, 843.456,384.128z"  />
<glyph unicode="&#xe00c;" d="M 1023.776,228.992c-2.112,10.624-6.368,44.672-34.016,39.328c0,0-24.448,52.064-77.632,58.432
			c-53.12,6.368-152.992,23.36-157.248,24.448s-105.12,59.776-105.12,59.776c-54.944,27.168-52.864,38.976-144.672,42.272
			c-63.776,2.24-131.808,5.312-131.808,5.312s-95.616,3.2-146.688-29.792c-51.008-32.928-78.624-47.84-97.76-51.040
			c-19.136-3.168-77.632-2.112-85.056-13.824s-15.936-37.184-15.936-37.184s-16.992-7.424-23.36-8.512s-4.256-57.408-4.256-68.032
			s 9.568-12.736, 15.936-14.88s 19.136-13.824, 19.136-13.824s 7.424-18.048, 15.936-20.224c 8.544-2.112, 48.928-11.68, 48.928-11.68
			s 1.504-0.096, 4.32-0.288c0,0.8-0.096,1.6-0.096,2.4c0,49.92, 40.48,90.368, 90.336,90.368c 49.92,0, 90.368-40.48, 90.368-90.368
			c0-4.64-0.48-9.184-1.152-13.632c 43.712-2.496, 82.016-4.448, 96.8-4.448c 42.496,0, 250.816,19.136, 341.216,2.112
			c0,0, 1.632,0.064, 4.64,0.128c-0.928,5.12-1.44,10.432-1.44,15.808c0,49.92, 40.448,90.368, 90.304,90.368s 90.368-40.48, 90.368-90.368
			c0-3.968-0.384-7.872-0.864-11.712c 1.056,0.032, 1.76,0.032, 1.888,0.032c 3.264,0, 110.56,13.856, 110.56,13.856
			S 1025.92,218.336, 1023.776,228.992z M 402.016,345.216c-6.144-0.576-95.040,5.92-132.416,8.672c-0.992,0.32-2.176,0.608-3.616,0.704
			c-11.744,0.96-11.264,9.856-9.952,15.040c 3.712,8.224, 13.76,29.824, 20.8,45.056c 0.512,0.768, 1.056,1.728, 1.696,2.88
			c 7.264,14.272, 18.4,17.088, 21.888,17.632l 110.176-1.344c 2.080-0.448, 9.952-2.88, 10.24-15.232c0-0.736, 0.064-1.44, 0.128-2.016
			c-0.448-24.48-1.824-58.24-6.208-65.76C 414.752,350.88, 409.792,345.92, 402.016,345.216z M 657.792,331.040c0,0-180.64,9.952-199.104,14.88
			c-18.4,4.96-13.44,49.632-13.44,53.152c0,2.144, 0.512,16.384, 0.928,27.168c 2.432,6.496, 11.552,7.072, 11.552,7.072l 0.032,0 l 72.736-0.864
			c 8.256-0.288, 42.816-0.8, 74.144-19.552l0,0.064 c 31.36-15.168, 66.624-34.048, 68.192-35.136c 8.448-5.44, 8.8-9.92, 8.8-9.92
			C 679.52,353.728, 657.792,331.040, 657.792,331.040zM 129.952,191.808A65.472,65.472 180 1 1 260.896,191.808A65.472,65.472 180 1 1 129.952,191.808zM 748,191.808A65.472,65.472 180 1 1 878.944,191.808A65.472,65.472 180 1 1 748,191.808zM 192.736,719.232c0,4.096-3.36,7.424-7.456,7.424L 139.424,726.656 c-4.096,0-7.424,3.328-7.424,7.424L 132,762.176 
				c0,4.096, 3.328,7.424, 7.424,7.424l 159.008,0 c 4.096,0, 7.456-3.328, 7.456-7.424L 305.888,734.080 c0-4.096-3.36-7.424-7.456-7.424L 251.552,726.656 
				c-4.096,0-7.456-3.328-7.456-7.424l0-168.416 c0-4.096-3.328-7.424-7.424-7.424l-36.48,0 c-4.096,0-7.424,3.328-7.424,7.424L 192.768,719.232 zM 369.12,601.44c-4.096,0-8.352-3.232-9.44-7.168l-12.128-43.712c-1.088-3.968-5.344-7.2-9.44-7.2
				L 299.968,543.36 c-4.096,0-6.464,3.232-5.28,7.136l 64.768,212c 1.216,3.904, 5.536,7.136, 9.632,7.136l 52.256,0 c 4.096,0, 8.448-3.2, 9.632-7.104
				l 65.76-212.064c 1.216-3.904-1.152-7.104-5.248-7.104l-40.16,0 c-4.096,0-8.416,3.232-9.568,7.136l-13.184,43.808
				c-1.184,3.936-5.472,7.136-9.568,7.136L 369.12,601.44 z M 411.616,639.712c 4.096,0, 6.496,3.232, 5.344,7.136l-9.92,33.728
				c-1.152,3.936-2.944,10.368-4,14.336c0,0-6.112,23.008-9.472,36.448l0,0c-0.384,0-1.376-3.296-2.272-7.296
				c0,0-5.12-23.264-8.832-36.352l-11.392-40.832c-1.12-3.936, 1.344-7.168, 5.44-7.168L 411.616,639.712 zM 647.84,543.36c-4.128,0-8.928,3.008-10.784,6.656l-13.824,27.616c-1.856,3.648-4.832,9.664-6.656,13.312
				c0,0-10.432,20.864-16.8,33.984l0,0c-0.384,0-1.984-3.104-3.552-6.88c0,0-7.52-17.952-14.56-33.76l-15.68-34.176
				c-1.728-3.712-6.464-6.752-10.56-6.752l-43.52,0 c-4.064,0-5.76,2.912-3.744,6.464l 58.080,101.536c 2.016,3.552, 2.016,9.376, 0.032,12.928
				l-55.808,98.848c-2.016,3.552-0.32,6.464, 3.776,6.464l 43.872,0 c 4.064,0, 8.864-3.008, 10.656-6.72l 13.376-27.872
				c 1.792-3.68, 4.672-9.728, 6.4-13.44c0,0, 8.576-18.112, 13.952-30.88l0,0c 0.384,0, 1.888,3.136, 3.392,6.912c0,0, 7.008,17.6, 12.672,30.688
				l 16,34.56c 1.728,3.712, 6.464,6.752, 10.592,6.752l 43.488,0 c 4.096,0, 5.792-2.912, 3.744-6.432l-56.384-97.568
				c-2.016-3.52-2.016-9.344, 0.032-12.864l 59.648-102.944c 2.048-3.52, 0.384-6.432-3.68-6.432L 647.84,543.36 zM 771.040,769.632c 4.064,0, 7.424-3.328, 7.424-7.424l0-211.36 c0-4.096-3.36-7.424-7.424-7.424l-36.512,0 
				c-4.064,0-7.424,3.328-7.424,7.424L 727.104,762.176 c0,4.096, 3.36,7.424, 7.424,7.424L 771.040,769.6 z"  />
<glyph unicode="&#xe00d;" d="M 948.224,553.312c 46.432,46.368, 46.496,121.472, 0.096,167.84c-46.304,46.368-121.376,46.368-167.744-0.064
			c-46.304-46.304-46.304-121.472,0-167.808C 826.944,506.88, 901.952,506.912, 948.224,553.312zM 347.104,362.688c 9.12,0.864, 20.448,3.936, 32.992,9.184c 33.76,14.048, 64.512,26.24, 99.52,32.832
			c 29.44,5.536, 60.8,4.128, 90.016-4.032c 24.096-5.184, 81.056-40.064, 112.832-40.064c0,0, 24.704-8.128, 128.704,40.864
			c 18.016,8.512, 30.496,8, 45.568,5.536c-6.272,21.28-18.432,45.152-41.408,68.384l-126.592,126.080c-59.136,66.016-132.512,44.672-140.768,42.304
			L 189.152,534.336c-18.752-8-34.656-33.632-27.424-57.408c 7.296-23.648, 34.112-34.4, 54.176-30.592l 294.176,88.16
			c 0.064-0.16, 0.16-0.16, 0.192-0.256c 10.496,3.232, 22.24,1.056, 30.592-7.264c 11.52-11.584, 11.808-30.112, 0.832-42.112l-30.944-31.168
			l-179.552-89.824c 2.304-0.448, 4.768-1.056, 6.976-1.312L 347.104,362.688zM 975.808,336c-24.288,10.144-50.112,21.728-76.384,27.456c-34.336,9.664-62.944,5.728-75.328,3.392
		c-32.768-6.112-63.456-16.512-92.992-30.88c-20-9.792-51.456-16.704-95.136,0.32c-24.448,9.568-49.888,21.76-76.192,27.488
		c-34.208,9.632-62.784,5.728-75.2,3.36c-32.768-6.112-62.688-18.176-92.96-30.88c-15.904-6.688-30.432-10.432-44.16-11.68
		c-2.144-0.064-11.072-0.064-13.28,0c-13.568,1.248-28.032,4.992-43.872,11.68c-24.288,10.144-49.952,21.76-76.224,27.488
		c-34.272,9.632-62.784,5.728-75.232,3.36c-32.736-6.112-62.656-18.176-92.96-30.88c-16.288-6.816-30.72-9.888-44.224-10.24
		c-0.192-2.752-0.352-47.616-0.192-67.424c 23.616,2.784, 47.232,13.408, 67.712,22.336c 31.776,13.856, 54.72,28, 92.96,30.496
		c 37.344-0.128, 75.328-14.56, 106.24-30.496c 9.792-5.056, 43.328-19.52, 49.536-21.312c 10.528-2.976, 20.288-3.456, 30.688-2.528
		c 5.92,0.256, 46.144,11.136, 63.904,19.936c 31.136,15.488, 57.024,31.904, 95.36,34.4c 37.312-0.128, 73.792-14.56, 104.768-30.496
		c 13.76-7.136, 27.936-13.984, 42.688-18.112c 2.624-1.024, 5.056-1.856, 6.784-2.144c 5.92-1.184, 11.52-1.632, 16.896-1.76
		c 1.152-0.064, 2.208,0, 3.328,0c 3.168,0, 6.336,0.128, 9.408,0.48c 0.288,0.032, 0.64,0.064, 0.96,0.096
		c 22.144,2.528, 40.864,12.192, 61.504,21.12c 31.84,13.888, 54.688,28, 92.992,30.496c 37.312-0.096, 74.208-14.496, 105.184-30.496
		c 20.576-10.592, 45.184-21.76, 70.336-23.68l0,67.040 C 1008.832,324.928, 992.736,328.928, 975.808,336zM 975.808,185.728c-24.288,10.208-50.112,21.76-76.384,27.52c-34.336,9.632-62.944,5.696-75.328,3.328
		c-32.768-6.080-62.72-18.144-92.992-30.88c-16.352-6.784-31.168-10.016-45.056-10.528c-0.768,0-1.632,0-2.4,0
		c-1.28,0-2.528,0.096-3.776,0.096c-13.472,0.672-27.808,4.064-43.872,10.784c-24.224,10.112-49.888,21.76-76.192,27.488
		c-34.208,9.632-62.784,5.696-75.2,3.36c-32.768-6.112-62.688-18.24-92.96-30.88c-15.904-6.656-30.432-10.4-44.16-11.68
		c-2.144-0.064-4.416-0.256-6.624-0.192c-2.272-0.064-4.448,0.128-6.656,0.192c-13.568,1.28-28.032,5.024-43.872,11.68
		c-24.288,10.112-49.952,21.76-76.224,27.488c-34.272,9.632-62.784,5.696-75.232,3.36c-32.736-6.112-62.656-18.24-92.96-30.88
		c-16.288-6.816-30.72-9.888-44.224-10.24c-0.192-2.752-0.384-5.472-0.576-8.192c 0.064-19.744, 0.224-39.424, 0.384-59.232
		c 23.616,2.784, 47.232,13.376, 67.712,22.336c 31.776,13.824, 54.72,28, 92.96,30.496c 37.344-0.16, 75.328-14.592, 106.24-30.496
		c 9.792-5.056, 43.328-19.552, 49.536-21.312c 10.528-3.008, 20.288-3.488, 30.688-2.56c 5.92,0.256, 46.144,11.136, 63.904,19.936
		c 31.136,15.488, 57.024,31.936, 95.36,34.432c 37.312-0.16, 73.792-14.592, 104.768-30.496c 13.76-7.168, 27.936-14.016, 42.688-18.144
		c 2.624-1.024, 5.056-1.856, 6.784-2.144c 5.92-1.184, 11.52-1.6, 16.896-1.76c 1.152-0.032, 2.208,0, 3.328,0.032
		c 3.168,0, 6.336,0.128, 9.408,0.48c 0.288,0, 0.64,0.064, 0.96,0.064c 22.144,2.528, 40.864,12.192, 61.504,21.12
		c 31.84,13.888, 54.688,27.968, 92.992,30.496c 37.312-0.096, 74.208-14.496, 105.184-30.496c 20.576-10.592, 45.184-21.728, 70.336-23.68l0,67.040 
		C 1008.832,174.688, 992.736,178.656, 975.808,185.728z"  />
<glyph unicode="&#xe00e;" d="M 916.8,814.016c0,41.856-31.744,75.84-73.696,75.84L 196.32,889.856 c-41.856,0-77.664-34.016-77.664-75.84L 118.656,789.76 L 916.8,789.76 L 916.8,814.016 zM 113.216,723.040l0-689.376 c0-54.4, 45.824-100.672, 100.192-100.672l 612.448,0 c 53.696,0, 97.28,45.344, 97.28,100.672L 923.136,723.040 L 113.216,723.040 z
		 M 868.992,33.664c0-25.248-19.52-45.696-43.168-45.696L 213.408-12.032 c-24.448,0-46.048,21.28-46.048,45.696L 167.36,668 l 701.664,0 L 869.024,33.664 zM 795.040,487.616L 250.304,487.616 l0-410.336 l 544.704,0 L 795.008,487.616 z M 685.856,381.184L 383.040,381.184 c-18.464,0-29.92,15.872-29.92,28
		c0,12.064, 11.424,27.936, 29.92,27.936l 302.816,0 c 18.464,0, 31.2-16.32, 31.2-28.448C 717.024,396.64, 704.32,381.184, 685.856,381.184zM 294.176,581.792A43.904,43.904 180 1 1 381.984,581.7919999999999A43.904,43.904 180 1 1 294.176,581.7919999999999zM 472.768,581.792A43.904,43.904 180 1 1 560.576,581.7919999999999A43.904,43.904 180 1 1 472.768,581.7919999999999zM 651.424,581.792A43.904,43.904 180 1 1 739.232,581.7919999999999A43.904,43.904 180 1 1 651.424,581.7919999999999zM 500.256,913.312c 0.416,1.792, 1.248,3.936, 1.248,6.048c0,19.968-16.352,36.32-36.352,36.32L 283.552,955.68 
		c-19.968,0-36.352-16.352-36.352-36.32c0-2.144, 0.832-4.256, 1.248-6.048L 500.256,913.312 zM 812.064,913.312c 0.384,1.792, 1.248,3.936, 1.248,6.048c0,19.968-16.352,36.32-36.32,36.32l-181.664,0 
		c-19.968,0-36.352-16.352-36.352-36.32c0-2.144, 0.864-4.256, 1.248-6.048L 812.064,913.312 z"  />
<glyph unicode="&#xe00f;" d="M 405.984,91.328c0-19.424-15.904-35.328-35.328-35.328L 38.016,56 c-19.424,0-35.328,15.872-35.328,35.328l0,70.656 
		c0,19.392, 15.904,35.328, 35.328,35.328l 332.672,0 c 19.392,0, 35.328-15.936, 35.328-35.328L 406.016,91.328 zM 611.104,296.448c0-19.424-15.904-35.328-35.328-35.328L 243.104,261.12 c-19.392,0-35.328,15.904-35.328,35.328l0,70.624 
		c0,19.424, 15.904,35.328, 35.328,35.328l 332.672,0 c 19.424,0, 35.328-15.904, 35.328-35.328L 611.104,296.448 zM 816.192,501.536c0-19.424-15.904-35.328-35.328-35.328L 448.224,466.208 c-19.424,0-35.328,15.904-35.328,35.328l0,70.656 
		c0,19.424, 15.904,35.328, 35.328,35.328l 332.672,0 c 19.392,0, 35.328-15.904, 35.328-35.328L 816.224,501.536 zM 1021.312,706.656c0-19.424-15.904-35.328-35.328-35.328L 653.312,671.328 c-19.392,0-35.328,15.904-35.328,35.328L 617.984,777.312 
		c0,19.424, 15.904,35.328, 35.328,35.328l 332.672,0 c 19.424,0, 35.328-15.904, 35.328-35.328L 1021.312,706.656 z"  />
<glyph unicode="&#xe010;" d="M 1004.576,338.24l-6.976,28.704c-4.192,17.216-21.76,27.904-38.976,23.712l-177.152-43.2l-109.44,66.528
	c 2.496,10.912, 3.808,22.272, 3.808,33.984c0,11.072-1.184,21.888-3.424,32.256l 111.328,67.68l 174.816-42.592
	c 17.248-4.224, 34.816,6.464, 39.008,23.712l 7.008,28.672c 4.192,17.248-6.464,34.816-23.712,39.008l-83.424,20.32l 59.040,35.904
	c 15.168,9.248, 20,29.184, 10.816,44.32l-15.36,25.28c-9.216,15.2-29.152,20-44.32,10.816l-58.304-35.424l 20.896,85.728
	c 4.192,17.216-6.496,34.784-23.68,38.976l-28.704,7.008c-17.248,4.224-34.784-6.464-39.040-23.68l-43.168-177.12l-110.72-67.328
	c-14.4,12.832-31.392,23.008-49.888,29.632l0,128 l 127.296,127.264c 12.576,12.576, 12.576,33.12, 0.032,45.664l-20.864,20.896
	c-12.544,12.544-33.12,12.544-45.664,0l-60.768-60.736L 575.040,921.28 c0,17.76-14.432,32.384-32.16,32.384l-29.6,0 c-17.76,0-32.416-14.624-32.416-32.384
	l0-68.256 l-62.304,62.4C 405.952,928, 385.44,928, 372.896,915.424l-20.864-20.896c-12.576-12.544-12.64-33.088-0.096-45.6l 128.864-128.96l0-126.144 
	c-20.576-6.080-39.328-16.384-55.328-29.952L 318.784,628.8L 275.616,805.952c-4.224,17.216-21.76,27.904-39.008,23.68L 207.904,822.624
	c-17.184-4.192-27.872-21.76-23.68-38.976L 205.12,697.952L 146.816,733.376C 131.68,742.56, 111.712,737.76, 102.496,722.56L 87.168,697.28
	C 77.952,682.144, 82.784,662.208, 97.952,652.96l 59.040-35.904l-83.424-20.32c-17.248-4.192-27.904-21.76-23.68-39.008l 6.976-28.672
	c 4.192-17.248, 21.76-27.936, 39.008-23.712l 174.816,42.592l 105.536-64.16c-2.784-11.456-4.224-23.456-4.224-35.776c0-12.928, 1.6-25.472, 4.672-37.504
	l-103.68-63.008l-177.12,43.2c-17.216,4.192-34.816-6.496-39.008-23.712L 49.824,338.24c-4.192-17.248, 6.432-34.816, 23.68-39.008l 85.728-20.896
	l-60.416-36.704c-15.232-9.216-20.064-29.184-10.816-44.352l 15.328-25.28c 9.216-15.136, 29.216-20, 44.384-10.816l 56.832,34.592l-20.352-83.424
	c-4.192-17.216, 6.528-34.784, 23.68-38.976l 28.704-7.008c 17.248-4.224, 34.816,6.464, 39.040,23.68l 42.592,174.848l 108.64,66.080
	c 15.648-12.992, 34.080-22.944, 53.984-28.8l0-123.648 l-128.832-128.896c-12.544-12.576-12.512-33.12, 0.032-45.664l 20.928-20.896
	c 12.544-12.544, 32.992-12.544, 45.568,0l 62.304,62.4l0-70.752 c0-17.76, 14.656-32.384, 32.416-32.384l 29.6,0 c 17.728,0, 32.16,14.624, 32.16,32.384l0,66.56 
	l 60.768-60.704c 12.544-12.544, 33.088-12.544, 45.632,0l 20.896,20.896c 12.544,12.544, 12.544,33.088-0.032,45.6l-127.296,127.296l0,130.528 
	c 18.144,6.432, 34.464,16.16, 48.608,28.48l 112.608-68.448l 42.592-174.848c 4.224-17.216, 21.792-27.904, 39.040-23.68l 28.704,7.008
	c 17.184,4.192, 27.872,21.76, 23.68,38.976l-20.32,83.424l 56.832-34.592c 15.136-9.184, 35.136-4.32, 44.352,10.816l 15.328,25.28
	c 9.248,15.168, 4.416,35.136-10.816,44.352l-60.416,36.704l 85.728,20.896C 998.112,303.424, 1008.768,320.992, 1004.576,338.24z"  />
<glyph unicode="&#xe011;" d="M0,205.344c0-8.8, 7.2-16, 16-16l 240.992,0 c 8.8,0, 16,7.2, 16,16l0,128 c0,8.8-7.2,16-16,16L 16,349.344 
		c-8.8,0-16-7.2-16-16L0,205.344 zM 320,205.344c0-8.8, 7.2-16, 16-16l 532,0 c 8.8,0, 16,7.2, 16,16l0,128 c0,8.8-7.2,16-16,16L 336,349.344 
		c-8.8,0-16-7.2-16-16L 320,205.344 zM 944,349.344c-8.8,0-16-7.2-16-16l0-128 c0-8.8, 7.2-16, 16-16l 64,0 c 8.8,0, 16,7.2, 16,16l0,128 
		c0,8.8-7.2,16-16,16L 944,349.344 zM 963.648,392c0,0, 122.368,159.52, 17.504,229.216c-91.552,60.896-69.92,115.616,0,187.136c0,0-210.336-143.616-57.184-238.368
		C 923.968,569.984, 1035.392,509.216, 963.648,392z"  />
<glyph unicode="&#xe012;" d="M 870.88,878.976L 149.408,878.976 c-37.824,0-67.424-27.168-67.424-65.056l0-243.488 c0,1.12, 117.312,0.032, 117.312,0.032L 199.296,684.768 
			c0,27.904, 21.152,47.296, 49.056,47.296l 531.744,0 c 27.872,0, 54.432-19.392, 54.432-47.296l0-114.304 c0,0, 97.792,0.704, 107.52-0.032L 942.048,813.92 
			C 942.048,851.808, 908.672,878.976, 870.88,878.976zM 782.208,571.936L 782.208,648.928 c0,24.672-17.216,35.84-41.376,35.84L 280.864,684.768 c-24.064,0-35.584-11.168-35.584-35.84l0-77.6 
			L 782.208,571.936zM 939.68,530.048c-4.48,0.768-8.96,1.152-13.632,1.152L 97.024,531.2 c-5.568,0-10.688-0.512-15.968-1.6
		c-35.968-7.584-62.624-39.424-62.624-77.696l0-354.144 c0-43.904, 34.88-80.704, 78.592-80.704l 829.024,0 c 43.84,0, 79.488,36.8, 79.488,80.704L 1005.536,451.872 
		C 1005.568,491.168, 976.992,523.616, 939.68,530.048z"  />
<glyph unicode="&#xe013;" d="M 579.936,793.888L 579.936,896.32 c0,35.136-28.128,63.648-62.976,63.648s-62.976-28.544-62.976-63.648l0-102.144 
		c-150.432-20.224-264.352-112.768-273.664-229.44l 670.368,0 C 841.376,681.376, 728.064,773.152, 579.936,793.888zM 167.136,350.72c-14.72,0-26.816-14.176-26.816-31.488l0-16.736 c0-17.312, 12.096-31.488, 26.816-31.488
		c 14.688,0, 26.816,14.176, 26.816,31.488l0,16.736 C 193.952,336.544, 181.824,350.72, 167.136,350.72zM 167.136,190.304c-14.72,0-26.816-14.176-26.816-31.488l0-16.704 c0-17.312, 12.096-31.488, 26.816-31.488
		c 14.688,0, 26.816,14.176, 26.816,31.488l0,16.704 C 193.952,176.128, 181.824,190.304, 167.136,190.304zM 167.136,30.88c-14.72,0-26.816-14.208-26.816-31.52l0-17.664 c0-17.312, 12.096-31.488, 26.816-31.488
		c 14.688,0, 26.816,14.176, 26.816,31.488l0,17.664 C 193.952,16.672, 181.824,30.88, 167.136,30.88zM 326.88,243.776c-14.688,0-26.816-14.176-26.816-31.488l0-43.904 c0-17.344, 12.096-31.488, 26.816-31.488
		s 26.816,14.144, 26.816,31.488l0,43.904 C 353.696,229.6, 341.6,243.776, 326.88,243.776zM 326.88,30.88c-14.688,0-26.816-14.208-26.816-31.52l0-17.664 c0-17.312, 12.096-31.488, 26.816-31.488
		s 26.816,14.176, 26.816,31.488l0,17.664 C 353.696,16.672, 341.6,30.88, 326.88,30.88zM 502.72,350.72c-14.464,0-26.24-14.176-26.24-31.488l0-16.736 c0-17.312, 11.776-31.488, 26.24-31.488s 26.24,14.176, 26.24,31.488
		l0,16.736 C 528.96,336.544, 517.184,350.72, 502.72,350.72zM 502.72,190.304c-14.464,0-26.24-14.176-26.24-31.488l0-16.704 c0-17.312, 11.776-31.488, 26.24-31.488s 26.24,14.176, 26.24,31.488
		l0,16.704 C 528.96,176.128, 517.184,190.304, 502.72,190.304zM 502.72,30.88c-14.464,0-26.24-14.208-26.24-31.52l0-17.664 c0-17.312, 11.776-31.488, 26.24-31.488s 26.24,14.176, 26.24,31.488
		l0,17.664 C 528.96,16.672, 517.184,30.88, 502.72,30.88zM 838.848,350.72c-14.72,0-26.848-14.176-26.848-31.488l0-16.736 c0-17.312, 12.128-31.488, 26.848-31.488
		s 26.848,14.176, 26.848,31.488l0,16.736 C 865.696,336.544, 853.568,350.72, 838.848,350.72zM 838.848,190.304c-14.72,0-26.848-14.176-26.848-31.488l0-16.704 c0-17.312, 12.128-31.488, 26.848-31.488
		s 26.848,14.176, 26.848,31.488l0,16.704 C 865.696,176.128, 853.568,190.304, 838.848,190.304zM 838.848,30.88c-14.72,0-26.848-14.208-26.848-31.52l0-17.664 c0-17.312, 12.128-31.488, 26.848-31.488
		s 26.848,14.176, 26.848,31.488l0,17.664 C 865.696,16.672, 853.568,30.88, 838.848,30.88zM 679.072,243.776c-14.688,0-26.816-14.176-26.816-31.488l0-43.904 c0-17.344, 12.128-31.488, 26.816-31.488
		c 14.72,0, 26.816,14.144, 26.816,31.488l0,43.904 C 705.888,229.6, 693.792,243.776, 679.072,243.776zM 679.072,30.88c-14.688,0-26.816-14.208-26.816-31.52l0-17.664 c0-17.312, 12.128-31.488, 26.816-31.488
		c 14.72,0, 26.816,14.176, 26.816,31.488l0,17.664 C 705.888,16.672, 693.792,30.88, 679.072,30.88zM 883.872,511.104l-4.576,0 l-52.544,0 L 198.752,511.104 L 148.32,511.104 L 147.776,511.104 c-0.48,0-0.96-0.032-1.408-0.032
		C 145.856,511.040, 145.344,511.040, 144.864,511.040c-0.448-0.032-0.896-0.032-1.344-0.064c-14.464-0.8-27.456-5.344-37.408-14.432
		c-15.392-12.256-25.28-31.168-25.28-52.384l0-0.224 c0-17.6, 6.752-33.568, 17.856-45.504c 3.616-4.224, 7.936-7.84, 12.832-10.752
		C 121.984,380.896, 134.4,376.96, 147.776,376.96l 133.632,0 c 11.104-2.112, 18.912-7.008, 18.912-12.544c0-7.424, 12.032-13.664, 26.72-13.664
		c 14.72,0, 26.72,6.24, 26.72,13.728c0,5.536, 7.808,10.336, 18.88,12.48l 260.352,0 c 11.104-2.112, 18.912-7.008, 18.912-12.544
		c0-7.424, 12.032-13.664, 26.72-13.664c 14.72,0, 26.752,6.24, 26.752,13.728c0,5.536, 7.808,10.336, 18.88,12.48l 159.616,0 
		c 36.928,0, 66.912,29.984, 66.912,66.976L 950.784,444.16 C 950.784,481.152, 920.8,511.104, 883.872,511.104z"  />
<glyph unicode="&#xe014;" d="M 168.896,482.048c 13.6-13.696, 35.904-13.696, 49.536,0l 274.176,274.176c 13.632,13.568, 13.632,35.904,0,49.504L 467.84,830.56
			c-13.632,13.6-35.936,13.6-49.568,0l-274.144-274.176c-13.632-13.6-13.632-35.936,0-49.568L 168.896,482.048z M 192.448,547.84
			c 11.424,0, 20.736-9.312, 20.736-20.768c0-11.52-9.312-20.8-20.736-20.8c-11.52,0-20.832,9.28-20.832,20.8
			C 171.584,538.528, 180.896,547.84, 192.448,547.84zM 818.080,478.72c 13.632-13.632, 35.936-13.632, 49.536,0l 24.8,24.8c 13.6,13.6, 13.6,35.872,0,49.568l-274.208,274.176
			c-13.568,13.568-35.936,13.568-49.536,0l-24.8-24.8c-13.632-13.664-13.632-35.968,0-49.6L 818.080,478.72z M 837.568,547.84
			c 11.456,0, 20.8-9.312, 20.8-20.768c0-11.52-9.344-20.8-20.8-20.8c-11.52,0-20.8,9.28-20.8,20.8
			C 816.736,538.528, 826.016,547.84, 837.568,547.84zM 981.408,560.256l-51.712,0 c 13.568-26.368, 9.632-59.488-12.48-81.536l-24.768-24.768
			c-13.216-13.216-30.816-20.48-49.568-20.48c-18.784,0-36.384,7.264-49.568,20.48l-106.336,106.304L 346.272,560.256 l-103.072-103.040
			c-13.216-13.248-30.816-20.512-49.536-20.512c-18.784,0-36.352,7.264-49.568,20.512l-24.8,24.8c-21.152,21.088-25.728,52.448-14.144,78.208
			L 49.632,560.224 c-19.264,0-35.040-15.776-35.040-35.072l0-78.848 c0-19.264, 15.776-35.040, 35.040-35.040l 43.232,0 L 170.784,48.32
			c 4.064-18.816, 23.168-34.24, 42.4-34.24l 625.12,0 c 19.232,0, 37.632,15.552, 40.768,34.56l 60.896,362.688l 41.408,0 c 19.296,0, 35.072,15.808, 35.072,35.040
			l0,78.848 C 1016.48,544.48, 1000.672,560.256, 981.408,560.256z M 657.152,366.88c0,3.552, 2.944,6.432, 6.432,6.432l 57.248,0 
			c 3.488,0, 6.432-2.88, 6.432-6.432l0-57.184 c0-3.552-2.944-6.432-6.432-6.432l-57.248,0 c-3.488,0-6.432,2.88-6.432,6.432L 657.152,366.88 z
			 M 680.544,255.936l0-57.248 c0-3.488-2.88-6.432-6.432-6.432l-57.248,0 c-3.488,0-6.432,2.944-6.432,6.432l0,57.248 
			c0,3.488, 2.944,6.432, 6.432,6.432l 57.248,0 C 677.664,262.368, 680.544,259.424, 680.544,255.936z M 547.584,366.88
			c0,3.552, 2.976,6.432, 6.432,6.432l 57.28,0 c 3.488,0, 6.432-2.88, 6.432-6.432l0-57.184 c0-3.552-2.944-6.432-6.432-6.432l-57.28,0 
			c-3.456,0-6.432,2.88-6.432,6.432L 547.584,366.88 z M 432.288,366.88c0,3.552, 2.944,6.432, 6.432,6.432l 57.184,0 c 3.52,0, 6.432-2.88, 6.432-6.432
			l0-57.184 c0-3.552-2.912-6.432-6.432-6.432L 438.72,303.264 c-3.488,0-6.432,2.88-6.432,6.432L 432.288,366.88 z M 455.68,255.936l0-57.248 
			c0-3.488-2.944-6.432-6.464-6.432L 392,192.256 c-3.52,0-6.432,2.944-6.432,6.432l0,57.248 c0,3.488, 2.912,6.432, 6.432,6.432l 57.216,0 
			C 452.736,262.368, 455.68,259.424, 455.68,255.936z M 322.688,366.88c0,3.552, 2.912,6.432, 6.432,6.432l 57.248,0 c 3.52,0, 6.432-2.88, 6.432-6.432
			l0-57.184 c0-3.552-2.912-6.432-6.432-6.432l-57.248,0 c-3.52,0-6.432,2.88-6.432,6.432L 322.688,366.88 z M 271.008,303.264L 213.76,303.264 
			c-3.456,0-6.368,2.88-6.368,6.432l0,57.184 c0,3.552, 2.912,6.432, 6.368,6.432l 57.248,0 c 3.552,0, 6.432-2.88, 6.432-6.432l0-57.184 
			C 277.44,306.112, 274.56,303.264, 271.008,303.264z M 276,198.688l0,57.248 c0,3.488, 2.912,6.432, 6.464,6.432l 57.152,0 
			c 3.552,0, 6.432-2.944, 6.432-6.432l0-57.248 c0-3.488-2.88-6.432-6.432-6.432L 282.464,192.256 C 278.912,192.256, 276,195.2, 276,198.688z
			 M 392.8,93.504c0-3.488-2.912-6.432-6.432-6.432l-57.248,0 c-3.52,0-6.432,2.944-6.432,6.432l0,57.248 c0,3.488, 2.912,6.432, 6.432,6.432
			l 57.248,0 c 3.52,0, 6.432-2.944, 6.432-6.432L 392.8,93.504 z M 502.336,93.504c0-3.488-2.912-6.432-6.432-6.432L 438.72,87.072 
			c-3.488,0-6.432,2.944-6.432,6.432l0,57.248 c0,3.488, 2.944,6.432, 6.432,6.432l 57.184,0 c 3.52,0, 6.432-2.944, 6.432-6.432L 502.336,93.504 z
			 M 500.928,198.688l0,57.248 c0,3.488, 2.88,6.432, 6.4,6.432l 57.216,0 c 3.52,0, 6.432-2.944, 6.432-6.432l0-57.248 
			c0-3.488-2.912-6.432-6.432-6.432l-57.216,0 C 503.808,192.256, 500.928,195.2, 500.928,198.688z M 617.76,93.504
			c0-3.488-2.944-6.432-6.432-6.432l-57.28,0 c-3.456,0-6.432,2.944-6.432,6.432l0,57.248 c0,3.488, 2.976,6.432, 6.432,6.432l 57.28,0 
			c 3.488,0, 6.432-2.944, 6.432-6.432L 617.76,93.504 z M 727.296,93.504c0-3.488-2.944-6.432-6.432-6.432l-57.248,0 
			c-3.488,0-6.432,2.944-6.432,6.432l0,57.248 c0,3.488, 2.944,6.432, 6.432,6.432l 57.248,0 c 3.488,0, 6.432-2.944, 6.432-6.432L 727.296,93.504 z
			 M 795.904,198.688c0-3.488-2.944-6.432-6.432-6.432l-57.248,0 c-3.52,0-6.432,2.944-6.432,6.432l0,57.248 c0,3.488, 2.912,6.432, 6.432,6.432
			l 57.248,0 c 3.488,0, 6.432-2.944, 6.432-6.432L 795.904,198.688 z M 842.592,309.696c0-3.552-2.88-6.432-6.4-6.432l-57.216,0 
			c-3.552,0-6.432,2.88-6.432,6.432l0,57.184 c0,3.552, 2.88,6.432, 6.432,6.432l 57.216,0 c 3.52,0, 6.4-2.88, 6.4-6.432L 842.592,309.696 z"  />
<glyph unicode="&#xe015;" d="M 1020.352,737.376l-3.296,28.48l-155.008-93.504c-19.808-12.032-45.056-11.36-52.192,0.448l-47.36,78.432
	c-4.32,7.168-1.664,15.968, 0.32,20.608c 4.096,9.824, 175.264,117.312, 175.264,117.312l-26.464,15.712c-34.656,20.576-74.272,31.392-114.656,31.392
	c-120,0-218.688-93.824-224.64-214.016l-0.224-8.224c-1.152-16.704, 5.856-52.672-49.216-104.128L 44.928,132
	c-15.84-15.872-26.464-35.328-30.144-54.048c-19.104-97.632, 100.224-157.312, 172.736-88.512l 473.504,473.632c 51.328,51.296, 126.144,23.328, 135.904,23.328
	c 124,0, 224.896,100.864, 224.896,224.928C 1021.856,720.128, 1021.312,728.832, 1020.352,737.376z M 161.088,61.632c0-24.512-19.936-44.384-44.416-44.384
	c-24.512,0-44.448,19.872-44.448,44.384s 19.936,44.448, 44.448,44.448C 141.152,106.048, 161.088,86.112, 161.088,61.632z"  />
<glyph unicode="&#xe016;" d="M 536.864,604L 612.064,516.96L 798.496,733.952L 778.432,757.184 		zM 980.736,832.192l-69.408,80.288l-66.080-57.184L 295.040,814.048c-135.232-119.296-165.024-314.752-80.512-467.328
			c 10.016,58.688, 61.088,103.328, 122.624,103.328c 68.736,0, 124.64-55.68, 124.64-124.448c0-55.136-35.808-101.856-85.28-118.208l0-16.192 
			c 131.136-65.984, 295.008-51.52, 414.4,48.48l 125.088,534.88l-1.056,0.672L 980.736,832.192z M 770.368,265.28L 316.704,789.024l 499.104,40.8
			L 773.76,793.504l 69.44-80.288l 43.264,37.376L 770.368,265.28zM 337.088,201.184c-23.424,0-42.24,6.464-64.512,17.76l0-136.16 l 103.904,0 l0,108.448 l0,16.192 
			C 364.128,203.392, 350.72,201.184, 337.088,201.184zM 357.44,264.16c 25.824,8.48, 44.48,32.8, 44.48,61.472c0,35.776-28.992,64.736-64.736,64.736
			c-32,0-58.592-23.296-63.808-53.792c-0.608-3.52-0.96-7.264-0.96-10.976c0-23.552, 12.608-44.192, 31.392-55.52
			c 9.728-5.888, 21.152-9.248, 33.344-9.248C 344.256,260.832, 351.072,262.016, 357.44,264.16zM 703.136-30.592c0-16.672-13.536-30.144-30.176-30.144L 99.84-60.736 c-16.64,0-30.144,13.504-30.144,30.144l0,31.264 
		c0,16.672, 13.504,30.144, 30.144,30.144l 573.12,0 c 16.672,0, 30.176-13.504, 30.176-30.144L 703.136-30.592 z"  />
<glyph unicode="&#xe017;" d="M 515.072,696.352c-109.504,0-198.208-88.736-198.208-198.24c0-109.44, 88.704-198.24, 198.208-198.24
		c 109.536,0, 198.208,88.8, 198.208,198.24C 713.28,607.584, 624.608,696.352, 515.072,696.352z M 515.424,655.936c 12.672,0, 22.944-10.336, 22.944-22.976
		c0-12.64-10.272-22.944-22.944-22.944s-22.944,10.304-22.944,22.944C 492.512,645.6, 502.784,655.936, 515.424,655.936z M 406.88,604.64
		c 8.832,9.088, 23.36,9.216, 32.416,0.256c 8.992-8.8, 9.152-23.328, 0.256-32.384c-8.8-8.992-23.328-9.12-32.384-0.288
		C 398.112,581.088, 398.016,595.584, 406.88,604.64z M 379.008,475.936c-12.64,0-22.912,10.304-22.912,22.912c0,12.672, 10.272,22.912, 22.912,22.912
		s 22.944-10.24, 22.944-22.912C 401.952,486.208, 391.616,475.936, 379.008,475.936z M 439.776,381.184c-8.864-8.992-23.392-9.152-32.448-0.256
		c-9.024,8.832-9.152,23.36-0.32,32.384c 8.864,8.992, 23.392,9.12, 32.448,0.32C 448.48,404.736, 448.64,390.24, 439.776,381.184z
		 M 513.056,339.456c-12.608,0-22.848,10.272-22.848,22.912c0,12.672, 10.24,22.944, 22.848,22.944c 12.672,0, 22.976-10.24, 22.976-22.944
		C 536.032,349.76, 525.76,339.456, 513.056,339.456z M 515.104,425.76c-40,0-72.416,32.352-72.416,72.352c0,40, 32.416,72.48, 72.416,72.48
		c 40.032,0, 72.48-32.48, 72.48-72.48C 587.552,458.112, 555.136,425.76, 515.104,425.76z M 598.144,604.832c 8.864,8.992, 23.392,9.184, 32.416,0.288
		c 8.992-8.832, 9.184-23.328, 0.352-32.416c-8.864-8.992-23.424-9.184-32.448-0.256C 589.44,581.216, 589.28,595.776, 598.144,604.832z
		 M 631.072,381.44c-8.832-9.056-23.392-9.248-32.416-0.384c-9.024,8.864-9.184,23.36-0.32,32.416c 8.864,9.056, 23.36,9.184, 32.448,0.352
		C 639.84,404.992, 639.968,390.4, 631.072,381.44z M 672.448,496.544c0-12.672-10.24-22.976-22.88-22.976s-22.944,10.304-22.944,22.976
		c0,12.672, 10.304,22.944, 22.944,22.944S 672.448,509.184, 672.448,496.544zM 897.152,828.16L 121.408,828.16 l0-704.992 l 775.744,0 L 897.152,828.16 z M 515.072,222.944c-152,0-275.232,123.2-275.232,275.168
		c0,152.032, 123.232,275.296, 275.232,275.296c 152.032,0, 275.296-123.264, 275.296-275.296C 790.336,346.112, 667.104,222.944, 515.072,222.944zM 945.792,950.624L 87.456,950.624 c-41.056,0-80.384-39.872-80.384-80.896l0-788.192 c0-40.96, 28.288-80.864, 69.312-80.864l 47.68,0 l0-48.928 
		c0-1.568, 1.248-2.816, 2.752-2.816l 122.496,0 c 1.504,0, 2.72,1.248, 2.72,2.816l0,48.928 l 514.464,0 l0-48.928 c0-1.568, 1.184-2.816, 2.72-2.816
		l 122.432,0 c 1.536,0, 2.752,1.248, 2.752,2.816l0,48.928 l 40.32,0 c 38.528,0, 76.224,35.136, 80.608,73.536l 1.568,795.552
		C 1016.896,910.752, 986.848,950.624, 945.792,950.624z M 929.856,87.744L 88.736,87.744 L 88.736,863.52 l 841.088,0 L 929.824,87.744 z"  />
<glyph unicode="&#xe018;" d="M 33.12,912.928C 23.808,922.24, 18.464,918.336, 18.624,918.24C 18.56,918.304, 18.624,918.4, 18.56,918.432
			c-17.696-12.608-57.568-69.12, 103.040-296.064l 200.096-275.328c 37.76-49.888, 73.504-41.888, 112.8-30.24c0,0, 66.752,20.8, 120.864-39.616
			c0,0, 17.248-17.888, 28.064-39.136c 17.248-33.824, 12.384-57.504, 53.12-98.24l 156.032-156c 45.216-45.312, 65.792-37.696, 86.656-16.8l 12.864,12.864
			c 36.864,36.928, 19.904,54.112-14.72,88.8L 33.12,912.928z M 307.072,313.216l-262.016-245.152c-19.392-18.176-21.92-50.432-3.072-69.248l 15.84-15.872
			l 2.56-2.56l 15.872-15.936c 18.848-18.752, 51.2-16.32, 69.344,3.136l 296.832,317.216c-16.864-4.928-34.88-9.728-53.888-9.728
			C 357.568,275.072, 330.784,287.616, 307.072,313.216z M 1019.936,829.376c-7.808,7.808-29.056-1.792-47.2-21.312l-169.664-182.752
			c-18.144-19.552-35.008-32.928-43.648-24.352c-10.048,10.080, 3.712,27.648, 21.248,47.712l 164.672,186.88c 15.264,17.344, 24.448,43.968, 17.792,50.432
			c-6.496,5.888-32.704-2.944-50.016-18.176l-187.008-164.576c-19.936-17.632-37.536-31.392-47.616-21.344c-8.576,8.64, 4.704,25.6, 24.32,43.648
			l 182.752,169.696c 19.488,18.144, 29.12,39.392, 21.312,47.2c-7.744,7.744-31.104,0.416-51.68-16.512l-274.016-223.488
			c-24.672-20.576-72.832-72.736-55.872-171.68c 1.696-13.824-12.128-24.64-18.912-31.072l-6.912-6.432l 71.264-71.328l 6.56,7.008
			c 6.4,6.88, 17.088,20.576, 30.88,18.944c 99.040-17.024, 151.232,31.136, 171.744,55.808l 223.52,274.016C 1020.32,798.336, 1027.68,821.632, 1019.936,829.376z"  />
<glyph unicode="&#xe019;" d="M 790.144,956.256L 250.656,956.256 c-34.912,0-64.416-28.576-64.416-63.488l0-243.328 l 665.664,1.344L 851.904,892.768 
		C 851.904,927.68, 825.12,956.256, 790.144,956.256z M 302.048,765.824c0-17.44-11.2-31.744-25.376-31.744c-14.144,0-25.28,14.304-25.28,31.744L 251.392,829.312 
		c0,17.44, 11.136,31.744, 25.28,31.744c 14.176,0, 25.376-14.304, 25.376-31.744L 302.048,765.824 zM 186.24,4.128c0-34.88, 29.504-64.384, 64.416-64.384l 539.488,0 c 34.976,0, 61.76,29.504, 61.76,64.384L 851.904,587.296 L 186.24,587.296 L 186.24,4.128 z
		 M 251.392,493.376c0,17.472, 11.136,31.744, 25.28,31.744c 14.176,0, 25.376-14.272, 25.376-31.744l0-202.336 c0-17.44-11.2-31.68-25.376-31.68
		c-14.144,0-25.28,14.24-25.28,31.68L 251.392,493.376 z"  />
<glyph unicode="&#xe01a;" d="M 607.072,620.736c-0.032-0.032-6.304-3.68-13.952-8.064l-44.928-25.728c-7.616-4.384-6.656-8.192, 2.112-8.448
		l 184.832-5.408c 8.768-0.256, 19.328,5.92, 23.456,13.696l 83.968,159.040c 4.096,7.776, 1.152,10.656-6.528,6.368l-40.992-22.784
		c-7.68-4.288-17.824-1.664-22.432,5.824l-87.072,139.84c-4.64,7.456-15.616,13.6-24.448,13.6l-235.008,0 c-8.8,0-10.24-4.32-3.168-9.568
		l 58.592-37.152c 4.8-7.36, 12.48-19.552, 17.088-27.072l 107.328-175.68c 4.64-7.488, 6.752-14.72, 4.736-16
		C 608.736,621.952, 607.104,620.8, 607.072,620.736zM 369.312,854.304c-7.904,3.872-17.888,0.768-22.144-6.912l-126.4-226.432c-4.288-7.68-1.536-17.568, 6.080-21.952
		l 140.64-80.832c 7.616-4.384, 17.408-1.728, 21.76,5.952l 112.16,197.792c 4.352,7.648, 4.128,20.032-0.48,27.552l-26.432,43.104
		c-4.608,7.52-12.16,19.776-16.8,27.264L 369.312,854.304zM 285.696,371.392c 4.256,7.68, 9.408,13.088, 11.424,11.968s 3.68-2.048, 3.648-2.080c0,0, 6.144-3.712, 13.728-8.224
		l 44.608-26.4c 7.584-4.512, 10.4-1.792, 6.272,6.016l-86.432,163.456c-4.128,7.776-14.688,13.952-23.488,13.696l-179.776-5.376
		c-8.8-0.256-9.824-4.128-2.24-8.64l 40.896-24.256c 7.584-4.512, 10.336-14.496, 6.144-22.24l-77.824-144.064
		c-4.192-7.712-4.064-20.32, 0.288-27.968l 115.84-204.448c 4.352-7.648, 8.704-6.752, 9.728,2.016l 2.4,68.704
		c 4.128,7.776, 11.008,20.448, 15.296,28.128L 285.696,371.392zM 216.544,181.184c-4.256-7.68-11.2-20.32-15.392-28.032l 13.536-93.984c 0.512-8.768, 8.128-15.936, 16.928-15.872
		l 259.296,1.664c 8.8,0.064, 16.032,7.296, 16.096,16.096l 1.024,162.304c 0.064,8.8-7.104,16-15.904,16l-227.36,0.032
		c-8.8,0-19.488-6.304-23.744-14.016L 216.544,181.184zM 914.56,235.264c-8.768-0.064-23.2,0.064-32,0.224l-205.376,3.968c-8.768,0.192-15.968,2.688-15.936,5.568
		c0,2.88, 0.064,5.248, 0.128,5.248c0,0, 0.352,7.2, 0.672,16l 2.016,49.696c 0.384,8.8-3.328,10.016-8.192,2.688l-102.848-154.72
		c-4.864-7.328-5.28-19.552-0.832-27.168l 90.080-156.256c 4.416-7.584, 8.288-6.656, 8.672,2.144l 1.888,47.232
		c 0.384,8.8, 7.84,16, 16.64,16l 163.744-0.192c 8.8,0, 19.84,6.080, 24.512,13.568l 124.864,198.944c 4.672,7.456, 1.824,10.912-6.368,7.616
		L 914.56,235.264zM 803.328,281.76c 4.192-7.744, 14.816-14.144, 23.584-14.24l 50.528-0.576c 8.8-0.096, 23.232-0.192, 32-0.224
		l 76.256,56.576c 7.488,4.64, 10.144,14.72, 5.952,22.432l-124.672,227.392c-4.224,7.712-14.016,10.656-21.824,6.528l-143.264-76.192
		c-7.776-4.128-10.72-13.856-6.528-21.6L 803.328,281.76z"  />
<glyph unicode="&#xe01b;" d="M 898.56,457.152c 1.088-10.656, 1.792-21.248, 1.792-31.648c0-175.552-168.448-318.4-375.424-318.4
		c-207.040,0-375.456,142.848-375.456,318.4c0,10.464, 0.736,21.088, 1.92,31.808c-55.552-50.976-88.704-113.504-88.704-181.376
		c0-170.496, 206.976-308.704, 462.272-308.704c 255.296,0, 462.272,138.208, 462.272,308.704C 987.2,343.712, 954.016,406.208, 898.56,457.152zM 524.896,184.288c 174.496,0, 315.936,125.248, 315.936,279.808c0,117.6-77.888,262.784-192.032,325.472
		c-6.592-15.232-17.44-28.64-30.784-39.904c 19.328-18.016, 31.456-41.6, 31.456-67.68c0-56.064-54.336-101.568-121.408-101.568
		c-67.008,0-121.376,45.504-121.376,101.568c0,24.736, 11.040,47.168, 28.608,64.736c-13.44,10.528-24.576,23.040-31.872,37.376
		c-113.024-65.376-194.528-205.728-194.528-320C 208.896,309.536, 350.4,184.288, 524.896,184.288zM 420.096,839.936A106.016,88.704 180 1 1 632.128,839.936A106.016,88.704 180 1 1 420.096,839.936zM 468.128,726.976c-0.16-6.144-0.256-12.608-0.256-19.968c0-26.368, 25.536-47.744, 57.024-47.744
		s 57.024,21.376, 57.024,47.744c0,7.392-0.064,13.696-0.192,19.968c-17.12-7.328-36.288-11.84-56.832-11.84S 485.216,719.648, 468.128,726.976z"  />
<glyph unicode="&#xe01c;" d="M 505.088,911.040C 250.24,911.040, 43.744,704.48, 43.744,449.696c0-254.752, 206.528-461.344, 461.344-461.344
			c 254.752,0, 461.344,206.56, 461.344,461.344C 966.432,704.48, 759.84,911.040, 505.088,911.040z M 505.088,206.624c-134.272,0-243.104,108.8-243.104,243.072
			c0,134.24, 108.8,243.072, 243.104,243.072c 134.24,0, 243.040-108.8, 243.040-243.072C 748.128,315.424, 639.328,206.624, 505.088,206.624zM 393.632,381.504c0,38.496, 27.52,64.608, 56.32,80.288l0,1.44 c-28.8,15.68-45.376,41.344-45.376,68.416
			c0,50.336, 45.472,84.576, 103.904,84.576c 66.528,0, 96.96-39.904, 96.96-77.92c0-26.112-11.488-53.184-47.488-69.856l0-1.44 
			c 36-12.8, 59.296-39.424, 59.296-77.888c0-55.136-47.168-92.192-113.184-92.192C 431.84,296.928, 393.632,338.304, 393.632,381.504z M 558.24,384.384
			c0,31.328-23.264,48.448-57.472,57.92c-28.96-8.544-45.6-28.48-45.6-54.112c-0.96-26.176, 19.008-49.888, 51.744-49.888
			C 537.824,338.304, 558.24,357.76, 558.24,384.384z M 461.824,533.984c0-25.152, 20.928-40.352, 50.336-48.448c 20.928,6.176, 38.528,23.296, 38.528,46.528
			c0,21.408-12.864,43.744-44.224,43.744C 477.024,575.84, 461.824,556.352, 461.824,533.984z"  />
<glyph unicode="&#xe01d;" d="M 960,831.936C 960,867.552, 925.248,896, 889.888,896L 122.016,896 C 86.624,896, 64,867.552, 64,831.936l0-766.88 C 64,29.376, 86.624,0, 122.016,0
		l 767.872,0 C 925.248,0, 960,29.376, 960,65.024L 960,831.936 z M 512,189.664L 512,189.76 c-160,36.064-237.664,212.704-237.664,432.192
		c 20.672-9.088, 42.24-12.928, 66.24-12.928c 150.656,0, 167.008,168.768, 167.072,168.768c 22.4-111.2, 77.088-168.832, 168.704-168.832
		c 24,0, 49.504,3.84, 70.112,12.928C 746.496,407.744, 672,225.696, 512,189.664z"  />
<glyph unicode="&#xe01e;" d="M 528.704,932.672c-216.032,0-391.2-175.168-391.2-391.2c0-305.056, 307.744-589.312, 385.984-589.312
		c 88.64,0, 396.384,286.88, 396.384,589.312C 919.872,757.504, 744.704,932.672, 528.704,932.672z M 527.392,395.488c-84.256,0-152.576,68.288-152.576,152.512
		c0,84.256, 68.32,152.544, 152.576,152.544s 152.544-68.288, 152.544-152.544C 679.936,463.808, 611.648,395.488, 527.392,395.488z"  />
<glyph unicode="&#xe01f;" d="M 53.728,729.024c 9.216,4.352, 19.488,6.816, 30.304,6.816L 82.048,735.84 C 70.656,735.84, 61.248,733.216, 53.728,729.024zM 987.648,111.296c-12.672-11.36-29.344-18.304-47.584-18.304l 2.048,0 C 968.16,92.96, 981.184,100.544, 987.648,111.296zM 84.032,92.96l 8.672,0 c-8.192,0-16.48,0.384-24.256,1.76C 73.472,93.568, 78.656,92.96, 84.032,92.96zM 940.064,735.84l-16.352,0 c-4.576,6.656-12.256,11.040-20.928,11.040l-13.376,0 c-0.384,16.864-14.112,30.432-31.072,30.432
		l-103.712,0 c-16.928,0-30.72-13.568-31.104-30.432l-14.752,0 c-8.672,0-16.384-4.384-20.928-11.040l-55.168,0 l-285.344,0 
		c-1.376,17.824-16.288,31.776-34.464,31.776L 187.104,767.616 c-18.144,0-33.056-13.984-34.432-31.776L 115.648,735.84 L 111.040,735.84 L 84.032,735.84 c-10.816,0-20.832-2.592-30.048-6.976
		c-0.544-0.32-1.088-0.64-1.632-0.96C 29.088,716.128, 12.928,691.968, 12.928,664.256l0-499.36 c0-24.672, 12.896-46.56, 32.128-59.328
		c 0.128-0.16, 0.288-0.288, 0.416-0.384c 2.752-1.856, 5.632-3.456, 8.608-4.928c-3.072,1.44-6.048,3.072-8.864,4.928
		c 5.376-4.544, 11.872-7.264, 18.944-8.928c 1.44-0.48, 2.944-0.864, 4.448-1.216c 7.744-1.376, 15.904-2.016, 24.096-2.016l 11.392,0 l 835.968,0 
		c 18.24,0, 34.784,7.264, 47.424,18.624c 0.16,0.288, 0.352,0.608, 0.48,0.896c 14.176,13.056, 23.136,31.68, 23.136,52.384L 1011.104,664.256 
		C 1011.104,703.488, 979.296,735.84, 940.064,735.84z M 243.776,557.248c0-19.68-15.392-35.68-35.104-35.68L 137.344,521.568 c-19.712,0-35.968,16-35.968,35.68
		l0,71.36 c0,19.648, 16.256,35.328, 35.968,35.328l 71.328,0 c 19.712,0, 35.104-15.648, 35.104-35.328L 243.776,557.248 z M 539.072,156
		c-123.104,0-222.912,99.776-222.912,222.912c0,123.168, 99.808,222.912, 222.912,222.912c 123.168,0, 222.976-99.744, 222.976-222.912
		C 762.016,255.776, 662.208,156, 539.072,156zM 539.072,557.248c-98.496,0-178.336-79.84-178.336-178.336s 79.84-178.336, 178.336-178.336s 178.336,79.84, 178.336,178.336
		S 637.568,557.248, 539.072,557.248z M 539.072,263.008c-64,0-115.904,51.904-115.904,115.904s 51.904,115.936, 115.904,115.936
		c 64.032,0, 115.968-51.936, 115.968-115.936S 603.104,263.008, 539.072,263.008z"  />
<glyph unicode="&#xe020;" d="M 845.376,119.68l-114.016,135.968c-27.488,29.696-59.2,41.728-97.248,22.112l-38.080-20.384
	c-21.152-10.816-21.312-17.056-29.12-29.216c-20.448-31.776-47.872-24.544-60.8-10.784c-54.848,58.464-123.232,189.856-123.84,191.072
	c-22.912,44.576-36.864,91.296-45.056,137.6c-3.104,18.688, 6.464,45.056, 44.192,43.2c 14.432-0.704, 19.584-4.224, 40.736,6.656l 38.72,19.104
	c 38.080,19.552, 46.784,52.256, 38.656,91.936l-44.128,171.84c-16.064,31.904-54.944,44.704-86.784,28.64l-82.56-41.568
	C 271.712,858.624, 258.4,843.744, 249.728,826.752c-69.696-117.824-65.632-303.456, 23.2-476.32c 3.296-6.464, 139.328-337.76, 410.368-367.584
	c 18.816-2.88, 38.56-0.704, 52.8,6.72l 81.984,42.944C 849.696,49.024, 861.952,88.064, 845.376,119.68z"  />
<glyph unicode="&#xe021;" d="M 317.312,625.056C 303.168,695.84, 254.4,755.744, 195.936,755.744c-58.432,0-96.512-77.184-96.512-149.408
		c0-72.16, 63.008-127.584, 121.408-127.584C 279.296,478.752, 332.864,547.232, 317.312,625.056zM 426.048,564.864c 56.288-15.648, 126.336,35.936, 132.192,115.072c 5.312,72-25.568,142.816-81.888,158.496
		c-56.32,15.648-113.664-48.512-132.992-118.048C 324,650.816, 369.728,580.576, 426.048,564.864zM 783.2,536.096c 34.176,63.616, 34.688,140.896-10.432,178.080c-44.992,37.216-123.488,1.888-169.504-53.824
		c-45.952-55.648-32.64-138.464, 12.448-175.68C 660.736,447.488, 745.632,466.176, 783.2,536.096zM 933.632,441.024c-23.328,47.712-101.568,48-160.512,19.2c-58.944-28.768-79.136-102.304-55.808-150.016
		c 23.328-47.744, 100.672-64.192, 158.016-20.48C 927.488,329.536, 956.928,393.28, 933.632,441.024zM 472.96,519.232c-139.808,8.704-314.336-97.44-314.336-227.232c0-129.824, 149.344-231.392, 289.44-233.472
		c 216.32-3.072, 263.712,110.56, 239.712,238.144C 662.816,428.928, 572.576,512.992, 472.96,519.232z"  />
<glyph unicode="&#xe022;" d="M 1026.048,912.384c-0.032,20.064-16.352,36.256-36.416,36.224L 62.176,946.56C 42.112,946.528, 25.92,930.24, 25.984,910.176
		L 27.552,172.8c 0.064-20.064, 16.352-36.288, 36.416-36.256l 927.456,2.016c 20.032,0.032, 36.288,16.384, 36.224,36.448L 1026.048,912.384z M 533.024,190.816
		c-24.512-0.032-44.48,19.776-44.544,44.32c-0.032,24.544, 19.84,44.48, 44.32,44.512c 24.576,0.064, 44.512-19.744, 44.576-44.288
		C 577.408,210.784, 557.568,190.88, 533.024,190.816z M 115.52,337.856L 114.4,868.352L 937.888,870.080l 1.152-530.464L 115.52,337.856zM 738.56-27.104C 686.336-8.992, 648.256,32, 644.64,96L 406.080,96 c-3.52-64-39.904-102.848-90.272-121.952
		c-3.648-3.2-6.4-12-6.4-16.928c0-8.672, 7.008-21.12, 15.616-21.12l 405.888,0 c 8.672,0, 15.616,11.072, 15.616,19.68
		C 746.528-38.56, 743.2-29.824, 738.56-27.104z"  />
<glyph unicode="&#xe023;" d="M 896,896L 128,896 c-35.2,0-64-28.8-64-64l0-768 c0-35.2, 28.8-64, 64-64l 768,0 c 35.2,0, 64,28.8, 64,64L 960,832 C 960,867.168, 931.2,896, 896,896z M 707.872,422.624
		c-43.264-40.736-108.544-58.976-183.36-58.976c-16.64,0-44.512,0.8-44.512,2.496L 480,160 l-128,0 L 352,718.624 c 32,6.688, 96.48,11.68, 173.792,11.68
		c 78.144,0, 135.136-15.008, 172.544-44.864c 35.744-28.32, 60.512-74.944, 60.512-129.76C 758.816,500.736, 741.12,454.24, 707.872,422.624zM 533.664,634.656c-25.792,0-53.664-2.496-53.664-4.992l0-165.504 c0-2.496, 25.376-3.328, 43.68-3.328
		c 67.328,0, 108.896,34.048, 108.896,91.488C 632.608,603.872, 596.832,634.656, 533.664,634.656z"  />
<glyph unicode="&#xe024;" d="M 214.208,382.112c0-8.704, 7.136-15.808, 15.808-15.808l 64.224,0 c 8.672,0, 21.376,4.448, 28.16,9.888l 37.536,30.016
		c 6.784,5.44, 12.352,16.96, 12.352,25.696l0,13.504 c0,8.704-7.136,15.808-15.808,15.808L 230.016,461.216 c-8.672,0-15.808-7.104-15.808-15.808L 214.208,382.112 zM 401.344,452.064L 409.664,460.608L 401.344,460.608 	zM 576.288,377.856c-5.952-6.336-3.68-11.52, 4.992-11.52l 123.072,0 c 8.704,0, 15.808,7.104, 15.808,15.808l0,63.264 
		c0,8.704-7.104,15.808-15.808,15.808l-33.76,0 c-8.672,0-20.672-5.184-26.624-11.52L 576.288,377.856zM 751.776,382.112c0-8.704, 7.136-15.808, 15.808-15.808l 31.616,0 c 8.672,0, 15.808,7.104, 15.808,15.808l0,63.264 
		c0,8.704-7.136,15.808-15.808,15.808l-31.616,0 c-8.672,0-15.808-7.104-15.808-15.808L 751.776,382.112 zM 762.656,648.48c-69.536,46.208-53.056,87.744,0,142.048c0,0-159.744-109.024-43.392-181.024c0,0, 84.608-46.144, 30.144-135.168
		C 749.408,474.336, 842.336,595.488, 762.656,648.48zM 511.968,951.328c-277.952,0-503.296-225.312-503.296-503.328s 225.344-503.36, 503.296-503.36
		c 278.016,0, 503.36,225.376, 503.36,503.36S 789.984,951.328, 511.968,951.328z M 511.968,55.328c-86.656,0-166.528,28.48-231.488,76.032l 443.968,443.968
		c-8.416,8.576-16.448,13.248-16.544,13.312c-39.872,24.672-51.776,52.8-54.208,74.304L 200.448,209.76C 149.76,275.84, 119.36,358.272, 119.36,448.032
		c0,216.832, 175.744,392.64, 392.608,392.64c 74.752,0, 144.256-21.344, 203.616-57.632c 16.16,14.816, 73.792,43.2, 81.184,33.408
		c 10.848-14.304-57.824-84.96-56.448-107.168c 0.736-12.544, 13.248-26.304, 35.488-41.088c 8.512-5.664, 15.424-12.544, 21.472-19.904l 31.328,31.264
		c 47.552-64.992, 76.032-144.832, 76.032-231.488C 904.672,231.2, 728.832,55.328, 511.968,55.328z"  />
<glyph unicode="&#xe025;" d="M 982.368,552.288l-30.976,0 c-17.088,0-32.512-12.736-32.512-29.408l0-159.52 L 105.056,363.36 L 105.056,677.728 
		c0,16.736-15.328,30.016-32.384,30.016L 41.696,707.744 c-16.992,0-31.136-13.28-31.136-30.016l0-517.92 c0-16.736, 14.112-31.2, 31.136-31.2l 31.008,0 
		c 17.056,0, 32.384,14.432, 32.384,31.2l0,48.064 l 813.856,0 l0-48.256 c0-16.672, 15.392-31.008, 32.512-31.008l 30.976,0 c 17.056,0, 31.040,14.336, 31.040,31.008L 1013.472,522.88 
		C 1013.408,539.552, 999.424,552.288, 982.368,552.288zM 607.328,591.584c-106.080,0-200.48,0.896-255.328-39.84l0-133.568 l 532.352,0 C 834.272,521.824, 729.056,591.584, 607.328,591.584z
		M 132.16,518.272A89.152,89.152 180 1 1 310.464,518.2719999999999A89.152,89.152 180 1 1 132.16,518.2719999999999z"  />
<glyph unicode="&#xe026;" d="M 511.968,951.328c-277.984,0-503.328-225.312-503.328-503.328c0-277.984, 225.344-503.328, 503.328-503.328
		s 503.328,225.376, 503.328,503.328C 1015.328,726.016, 789.952,951.328, 511.968,951.328z M 119.328,448.032c0,216.832, 175.776,392.64, 392.64,392.64
		c 89.76,0, 172.16-30.4, 238.272-81.056L 200.448,209.76C 149.76,275.872, 119.328,358.272, 119.328,448.032z M 511.968,55.36
		c-86.688,0-166.528,28.448-231.488,76.032l 548.128,548.16c 47.584-64.992, 76.032-144.832, 76.032-231.52C 904.64,231.2, 728.8,55.36, 511.968,55.36zM 368.864,569.92c-10.528,52.768-46.912,97.44-90.496,97.44S 206.4,609.792, 206.4,555.936
		c0-53.824, 47.008-95.136, 90.528-95.136C 340.544,460.8, 380.48,511.84, 368.864,569.92zM 487.456,728.992c-42.016,11.68-84.704-36.16-99.168-88.032s 19.68-104.256, 61.664-115.904
		c 6.176-1.76, 12.672-2.048, 19.136-1.696c 26.336,26.016, 52.448,51.776, 77.504,76.544c 0.672,3.648, 1.664,7.104, 1.952,10.944
		C 552.544,664.512, 529.472,717.312, 487.456,728.992zM 716.288,503.552c 1.792,3.328, 3.136,6.72, 4.672,10.112l-56.672-56.032C 684.704,465.536, 703.968,480.64, 716.288,503.552
		zM 828.448,432.672c-17.376,35.584-75.68,35.808-119.648,14.304c-43.936-21.472-59.040-76.256-41.6-111.872
		c 17.376-35.584, 75.040-47.84, 117.792-15.264C 823.872,349.536, 845.888,397.056, 828.448,432.672zM 613.312,407.328l-241.792-238.912c 29.984-12.96, 62.752-20.544, 94.848-20.96c 161.312-2.304, 196.64,82.4, 178.72,177.568
		C 639.168,356.576, 627.84,383.872, 613.312,407.328zM 250.56,321.536c0-4.288, 0.48-8.512, 0.864-12.672c 47.744,46.976, 113.536,111.744, 181.248,178.592
		C 341.824,471.072, 250.56,402.56, 250.56,321.536z"  />
<glyph unicode="&#xe027;" d="M 227.744,276.64l0,37.568 l 34.24,31.008c 57.984,51.872, 86.112,81.632, 86.944,112.64c0,21.632-13.056,38.752-43.68,38.752
			c-22.816,0-42.816-11.36-56.672-22.048l-17.568,44.512c 20,15.136, 51.008,27.328, 86.944,27.328c 60,0, 92.992-35.072, 92.992-83.2
			c0-44.512-32.192-80-70.56-114.24l-24.512-20.384l0-0.864 l 99.936,0 l0-51.008 L 227.744,276.704 zM 564.064,276.64l0,63.328 l-117.504,0 l0,40.384 l 100.384,161.568l 75.872,0 l0-155.424 l 31.84,0 l0-46.496 l-31.84,0 l0-63.328 L 564.064,276.672 z
			 M 564.064,386.432l0,58.752 c0,15.872, 0.8,32.192, 2.048,49.312l-1.632,0 c-8.576-17.12-15.488-32.64-24.512-49.312L 504.512,387.2l0-0.736 L 564.064,386.464 zM 670.88,458.304l 39.872,0 l0-73.12 l 0.512,0 c 4.192,5.504, 9.44,9.696, 15.712,13.056c 5.792,3.2, 13.376,4.992, 20.704,4.992
			c 25.44,0, 44.8-17.568, 44.8-56.064l0-75.008 l-39.808,0 l0,70.496 c0,16.8-5.824,28.32-20.736,28.32c-10.464,0-17.024-6.816-19.904-13.888
			c-1.056-2.624-1.28-6.016-1.28-8.928l0-76 l-39.872,0 L 670.88,458.304 zM 851.648,135.68c 57.408,74.048, 91.712,167.008, 91.712,268c0,241.888-196.096,437.952-437.92,437.952
			c-25.6,0-50.592-2.304-74.976-6.56c-133.984-23.072-247.168-106.944-309.952-222.304c-33.824-62.112-53.056-133.376-53.056-209.056
			c0-111.264, 41.568-212.672, 109.888-289.952l-77.568-111.744c-8.736-8.672-8.736-22.88,0-31.616l 2.752-2.688c 8.672-8.736, 22.912-8.736, 31.616,0
			l 101.696,91.072c 74.304-58.176, 167.84-92.928, 269.6-92.928c 109.792,0, 210.080,40.512, 286.976,107.264l 117.632-105.376c 8.8-8.736, 22.976-8.736, 31.712,0
			l 2.72,2.688c 8.736,8.736, 8.736,22.944,0,31.616L 851.648,135.68z M 505.472,38.752c-201.568,0-364.96,163.36-364.96,364.928
			c0,65.824, 17.504,127.488, 47.968,180.736c 51.776,90.624, 141.216,156.864, 247.040,177.376c 22.624,4.448, 46.016,6.816, 69.984,6.816
			c 201.536,0, 364.896-163.36, 364.896-364.928S 707.008,38.752, 505.472,38.752zM 404.288,877.632c-36.832,35.424-86.912,57.248-142.016,57.248c-113.152,0-204.896-91.744-204.896-204.864
			c0-35.136, 8.896-68.128, 24.512-97.056C 144.576,766.624, 264.16,849.76, 404.288,877.632zM 935.872,614.24c 22.624,32.928, 35.936,72.736, 35.936,115.744c0,113.12-91.68,204.864-204.864,204.864
			c-57.824,0-109.984-23.936-147.2-62.432C 771.040,841.632, 884.576,742.304, 935.872,614.24z"  />
<glyph unicode="&#xe028;" d="M 910.336,851.552c0,38.656-30.816,63.744-68.512,55.776l-469.44-100.576
	C 334.72,798.752, 307.744,760.544, 307.744,721.888l0-513.6 c0-6.208-39.136-4.16-56.608-4.16L 183.52,204.128 c-65.376,0-118.368-40.672-118.368-106.048
	c0-65.344, 52.992-106.016, 118.368-106.016l 67.616,0 c 65.376,0, 118.4,48.16, 118.4,113.504c0,3.040-1.152,237.92-1.408,412.992l 471.328,110.4l0-281.92 
	c0-2.24-29.888-1.216-47.328-1.216l-67.616,0 c-65.376,0-118.368-40.64-118.368-106.016s 52.992-106.048, 118.368-106.048l 67.616,0 
	c 65.408,0, 118.336,46.624, 118.336,112.032C 910.496,249.088, 910.336,851.552, 910.336,851.552z"  />
<glyph unicode="&#xe029;" d="M 637.376,682.176c-9.28,47.904-51.456,84.544-102.048,84.544L 503.36,766.72 c-50.656,0-92.928-36.704-102.080-84.704
		C 213.344,632.16, 73.152,467.936, 63.168,285.088l 912.992,0 C 966.144,467.936, 825.632,632.512, 637.376,682.176z M 519.648,697.44
		c-28.96,0-57.28-2.592-84.704-7.68c 11.52,27.616, 38.784,47.232, 70.528,47.232l 27.744,0 c 31.712,0, 58.944-19.552, 70.528-47.136
		C 576.48,694.912, 548.352,697.44, 519.648,697.44zM 985.088,254.144L 48.352,254.144 c-17.888,0-32.576-14.176-32.576-31.488s 14.656-31.488, 32.576-31.488
		c0,0, 103.488-0.384, 108.096-0.384l0-4.032 c0-31.936, 26.368-57.44, 58.304-57.44l 603.904,0 c 31.936,0, 58.272,25.504, 58.272,57.44l0,4.032 
		c 3.488,0, 108.128,0.384, 108.128,0.384c 17.92,0, 32.576,14.176, 32.576,31.488S 1003.008,254.144, 985.088,254.144z"  />
<glyph unicode="&#xe02a;" d="M 225.088,813.248A99.040,99.040 180 1 1 423.168,813.248A99.040,99.040 180 1 1 225.088,813.248zM 188.992,399.264l 0.96,155.328c0,4.672, 4,13.216, 16.832,13.696c0,0, 16.64,0.672, 16.64-16.128l 0.032-146.176
		c 67.968,13.088, 135.776,22.624, 203.52,37.376l 0.16,108.8c0,16.832, 17.248,16.128, 17.248,16.128c 12.864-0.48, 17.024-9.024, 17.024-13.76l0-103.808 
		c 26.752,5.408, 50.944,10.624, 76.48,15.488l-0.288,116.672c0,0, 5.6,110.528-111.2,110.528L 224.032,693.408 c-112.608,0-111.744-102.048-111.872-110.528l0-196.864 
		C 138.016,389.696, 163.264,394.688, 188.992,399.264zM 778.208,284.448c 57.152,0, 103.584,46.368, 103.584,103.68c0,57.216-46.432,103.616-103.584,103.616
		c-57.312,0-103.808-46.432-103.808-103.616C 674.4,330.816, 720.896,284.448, 778.208,284.448zM 813.216,105.984l 185.888,83.008c 18.496,10.752, 31.936,39.744, 21.312,63.488c-10.592,23.744-39.872,31.552-60.288,24.992
		l-162.528-72c-34.944,22.048-93.952,59.936-139.136,92.192c0,0, 5.632,117.248-154.24,97.888c0,0-296.96-39.552-504.352-72.736l0-170.24 
		c 127.072,0.32, 653.536,1.12, 653.536,1.12c 6.688-2.816, 105.536-43.136, 105.536-43.136C 788.352,97.376, 796.96,98.88, 813.216,105.984zM 644.96,123.264l-645.088-1.568l0-96.864 l 645.728,1.696c 21.184,2.496, 45.056,23.744, 44.736,49.824
		C 690.080,102.304, 666.336,121.12, 644.96,123.264z"  />
<glyph unicode="&#xe02b;" d="M 445.952,869.824A85.216,85.216 180 1 1 616.384,869.824A85.216,85.216 180 1 1 445.952,869.824zM 714.784,671.328c0,0, 4.864,94.88-95.584,94.88l-174.144,0 c-96.864,0-96.128-87.584-96.256-94.88l 0.064-269.92
		c 1.536-14.624, 15.968-31.104, 33.792-31.104c 17.792,0, 30.848,16.16, 32.448,30.72l 0.64,246.208c0,4.032, 3.424,11.392, 14.496,11.776
		c0,0, 14.336,0.608, 14.336-13.888l 0.8-674.176c 2.208-21.92, 17.664-30.048, 36.672-30.048c 18.976,0, 34.432,8.16, 36.672,30.048l-0.832,387.68
		c0,4.064, 4.576,10.72, 14.592,11.328c 10.016-0.64, 14.656-7.296, 14.656-11.328l-1.568-387.68c 2.304-21.92, 17.696-30.048, 36.672-30.048
		c 19.040,0, 34.496,8.16, 36.704,30.048l 0.864,674.176c0,14.464, 14.816,13.888, 14.816,13.888c 11.072-0.384, 14.624-7.744, 14.624-11.808l0-245.792 
		c 1.472-14.624, 14.624-31.104, 32.416-31.104c 17.856,0, 32.288,16.48, 33.76,31.104L 714.784,671.328z"  />
<glyph unicode="&#xe02c;" d="M 385.888,116.224l-82.976,26.56l 82.176,166.624L 291.552,309.408 c-252.096,0-250.24-227.552-250.56-246.624l 0.032-122.88L 215.040-60.096 l 0.096,60.128
		c0,10.56, 8.928,29.568, 37.76,30.496c0,0, 37.248,1.76, 37.248-35.808l 0.096-54.816l 221.152,0 l-161.952,97.696L 385.888,116.224zM 386.464,309.408L 513.024-60.096L 529.984-60.096L 656.544,309.408 	zM 993.92-60.096l-0.192,122.88c0,0, 12.672,246.624-248.896,246.624l-86.976,0 l 82.176-166.624l-82.944-26.432l 36.416-78.752
		l-161.984-97.696l 214.72,0 l 0.064,54.624c0,37.696, 38.208,36, 38.208,36c 28.832-0.928, 37.824-20.32, 37.824-30.944l0-59.68 L 993.92-60.096 zM 517.44,357.024c 92.832,0, 172.096,57.44, 204.672,138.624c 10.176,25.344, 15.904,52.992, 15.904,81.952
		c0,121.856-98.72,220.608-220.576,220.608S 296.8,699.456, 296.8,577.6c0-20.064, 2.944-39.456, 8-58.016
		C 330.336,425.984, 415.712,357.024, 517.44,357.024zM 517.44,830.56c 72.864,0, 138.368-31.232, 184.544-80.768c 6.368,13.568, 30.496,78.304, 38.048,97.504
		c-49.376,70.144-124.224,108.768-216.544,108.768c-89.76,0-169.824-41.376-219.584-108.288c 8.096-30.816, 25.888-94.72, 26.816-97.632
		C 376.896,801.152, 443.296,830.56, 517.44,830.56z"  />
<glyph unicode="&#xe02d;" d="M 103.648,644.192c-40.832,0-76.672-32.8-76.672-73.632l0-519.712 c0-40.8, 35.84-74.336, 76.672-74.336l 37.12,0 
			c0-18.912, 16.704-37.824, 37.12-37.824l 74.208,0 c 20.448,0, 37.12,18.912, 37.12,37.824l 36.928,0 L 326.144,644.192 L 103.648,644.192 zM 920.32,644.192l-222.496,0 l0-667.68 l 36.928,0 c0-18.912, 16.672-37.824, 37.12-37.824l 74.208,0 c 20.416,0, 37.12,18.912, 37.12,37.824
			l 37.088,0 c 40.832,0, 76.704,33.536, 76.704,74.336L 996.992,570.56 C 997.024,611.36, 961.152,644.192, 920.32,644.192zM 363.968,644.192L 660.032,644.192L 660.032-23.488L 363.968-23.488zM 594.784,939.808l-157.792,0 c-48.128,0-85.216-40.192-85.216-88.224L 351.776,780.8 c0-47.424, 34.592-86.016, 82.144-87.008l0-9.184 l 164.384,0 
		L 598.304,693.824 c 47.552,0.992, 82.144,39.552, 82.144,87.008L 680.448,851.584 C 680.48,899.616, 642.88,939.808, 594.784,939.808z M 619.904,786.496
		c0-14.944-8.672-27.872-21.6-33.504L 598.304,792.736 l-164.384,0 l0-39.744 c-12.928,5.632-21.632,18.56-21.632,33.504L 412.288,845.856 c0,20.16, 17.248,37.728, 37.44,37.728
		l 132.288,0 c 20.16,0, 37.888-17.568, 37.888-37.728L 619.904,786.496 z"  />
<glyph unicode="&#xe02e;" d="M 872.256,488.032L 721.312,956L 313.536,956 L 194.368,488.032l 0.16,0 c-0.064,0-0.16-0.384-0.16-0.832
			c0-22.176, 151.68-39.936, 338.912-39.936c 187.2,0, 338.976,17.632, 338.976,39.808c0,0.48-0.096,0.96-0.224,0.96L 872.256,488.032 zM 709.12-4.576l-131.808,0 L 577.312,385.984 c-19.328-1.152-59.328-0.672-73.888-0.192l0-390.368 l-140.032,0 
			c-18.624,0-32.416-14.624-32.416-33.28l0-22.144 l 412.608,0 l0,22.144 C 743.584-19.2, 727.744-4.576, 709.12-4.576zM 737.44,278.592l0,114.848 c-10.912-0.96-22.24-1.792-33.92-2.56l0-113.664 c-22.176-7.904-38.144-29.024-38.144-53.92
			c0-31.584, 25.696-57.248, 57.248-57.248c 31.584,0, 57.312,25.664, 57.312,57.248C 779.936,249.792, 761.888,272.064, 737.44,278.592z M 722.624,198.368
			c-13.728,0-24.864,11.168-24.864,24.928c0,13.728, 11.168,24.928, 24.864,24.928c 13.792,0, 24.928-11.232, 24.928-24.928
			C 747.552,209.536, 736.416,198.368, 722.624,198.368z"  />
<glyph unicode="&#xe02f;" d="M 893.056,156.48l-14.688,19.936c-13.856,18.752-33.44,36.096-43.68,36.992
	c-18.976,1.6-20.672,7.424-18.144,22.88c 6.016,37.536-64.128,14.912-64.128,14.912c-28.512-7.392-39.936,2.592-31.232,39.648l 8.576,31.040
	c 9.248,32.96, 4.064,42.016-25.44,44.064c-25.344,1.824-36.768,4.064-25.728,34.944c 6.144,17.376, 16.32,21.536-14.304,65.856l-20.416,27.808
	c 52.896,93.056, 49.888,212.32-17.824,304.032C 534.56,922.656, 359.744,949.184, 235.584,857.6C 111.456,766.080, 85.024,591.264, 176.544,467.136
	c 68.864-93.376, 184.832-131.456, 290.912-105.664l 247.808-336.096c 13.792-18.784, 43.776-38.24, 66.56-43.232l 78.944-17.344
	c 22.752-5.024, 43.296,9.856, 45.472,33.088l 7.936,82.208C 916.416,103.328, 906.912,137.728, 893.056,156.48z M 466.432,719.808l-167.424-123.424
	c-18.752-13.856-29.344-6.848-38.432,17.024c0,0-30.304,85.44, 49.024,143.904c 81.792,60.32, 151.904,4.256, 151.904,4.256
	C 483.68,744.896, 485.184,733.632, 466.432,719.808z"  />
<glyph unicode="&#xe030;" d="M 600.928,584.416l-184.896,0 c-15.392-10.176-30.24-20.448-44.64-30.624l 258.528,0 
		C 622.016,563.968, 612.448,574.208, 600.928,584.416zM 961.312,529.952l 0.128,0 L 961.44,723.808 c0,17.536-15.424,30.848-32.96,30.848l-61.152,0 L 417.728,754.656 
		c-17.536,0-31.712-13.312-31.712-30.848l0-31.936 c0-17.568, 14.176-32.544, 31.712-32.544l 335.904,0 l-50.24-129.408L 322.144,529.92 
		c-84.352-64.672-161.28-146.4-231.616-251.968l 920.48,0 C 1011.008,386.944, 997.376,468.672, 961.312,529.952zM 1022.72,184.736c0,17.632-14.272,31.904-31.904,31.904L 33.184,216.64 c-17.632,0-31.936-14.272-31.936-31.904l0-31.488 
		c0-17.632, 14.304-31.904, 31.936-31.904l 957.632,0 c 17.632,0, 31.904,14.272, 31.904,31.904L 1022.72,184.736 z"  />
<glyph unicode="&#xe031;" d="M 968.896,832c0,35.328-35.2,64-70.496,64l-768,0 C 95.040,896, 72.896,867.328, 72.896,832l0-768 c0-35.328, 22.112-64, 57.504-64l 768,0 
		c 35.328,0, 70.496,28.672, 70.496,64L 968.896,832 z M 520.896,89.504c-195.84,0-355.2,159.328-355.2,355.2s 159.328,355.2, 355.2,355.2
		c 195.872,0, 355.232-159.328, 355.232-355.2S 716.768,89.504, 520.896,89.504zM 520.896,751.328c-169.056,0-306.592-137.536-306.592-306.624s 137.536-306.624, 306.592-306.624c 169.088,0, 306.624,137.536, 306.624,306.624
		S 690.016,751.328, 520.896,751.328z M 482.016,682.816c 10.016,9.152, 23.040,13.696, 39.104,13.696c 14.72,0, 26.688-4.16, 36.096-12.544
		c 9.376-8.352, 14.016-20.192, 14.016-35.584c0-15.392-4.928-27.872-14.848-37.408c-9.984-9.568-22.944-14.368-38.944-14.368
		c-14.752,0-26.816,4.512-36.32,13.504c-9.472,9.024-14.144,20.768-14.144,35.264C 466.976,661.216, 472,673.696, 482.016,682.816z M 425.664,216.384
		l-1.728,16.064l 42.4,11.68c 5.088,1.312, 11.68,4.672, 12.096,10.016c 0.416,8.672, 0.256,207.328-0.672,231.872l-49.664,12.352l-3.84,13.696
		c 54.784,8.224, 102.88,16.8, 144.32,25.728l 7.936-2.688c-1.312-30.72-1.76-269.184-1.312-279.616c 0.448-6.048, 1.088-9.824, 6.144-11.36
		l 40.704-11.68l 0.448-16.064C 589.536,217.056, 457.984,217.056, 425.664,216.384z"  />
<glyph unicode="&#xe032;" d="M 783.328,631.904c0,0-39.328,11.136-94.112-51.488c-16.672-19.072-3.744-100.448, 5.92-121.184
		c 16-34.752, 7.424-84.448-33.44-73.952c-46.848,12.064-6.624,118.752, 3.104,156.256c 9.76,37.408-58.528,41.984-79.232,32.576
		c-20.8-9.312-62.208-10.016-80.544,2.016c-18.304,12.032-39.584,4.096-67.072-23.968c-25.056-25.536-35.456,20-54.912,24
		c-19.52,4-24.416-16.064-10.976-44.16s-4.896-69.568-30.528-48.16c-25.632,21.376, 11.872,58.112-6.080,104.096
		c-19.168,49.024-45.6,42.656-45.6,42.656c-18.304-4.448-27.808-22.464-21.184-40.096l 241.344-635.584c 6.688-17.632, 18.144-17.824, 25.44-0.448
		l 267.552,636.48C 810.304,608.352, 801.472,626.752, 783.328,631.904zM 311.136,654.944l 452,0.384c 18.88,0.032, 35.68,10.848, 37.728,24.096c0,0,0,0,0,11.744
		c0,37.632-8.192,73.312-22.368,105.696l-0.096,0 c-40.672,92.736-133.28,157.568-241.056,157.568c-119.936,0-233.28-91.264-257.984-213.76
		C 279.296,740.704, 279.264,740.768, 279.2,740.832C 275.968,724.736, 274.080,708.16, 274.080,691.168c0-12.32,0-12.32,0-12.32
		C 275.456,665.664, 292.32,654.944, 311.136,654.944z M 465.408,893.984c0,0-99.68-79.968-93.888-206.176l-48.128,0 C 323.392,687.808, 315.68,837.888, 465.408,893.984z"  />
<glyph unicode="&#xe033;" d="M 790.176,870.048c0,8.768-7.168,15.904-15.904,15.904L 263.008,885.952 c-8.736,0-15.936-7.136-15.936-15.904l0-883.648 
			c0-8.768, 7.168-15.904, 15.936-15.904l 35.392,0 c 8.736,0, 15.936,7.136, 15.936,15.904l0,71.552 c0,8.768, 7.168,15.936, 15.904,15.936l 56.128,0 
			c 8.736,0, 15.904-7.168, 15.904-15.936l0-71.552 c0-8.768, 7.168-15.904, 15.936-15.904l 14.688,0 c 8.736,0, 15.904,7.136, 15.904,15.904l0,71.552 
			c0,8.768, 7.168,15.936, 15.904,15.936l 25.088,0 c 8.736,0, 15.904-7.168, 15.904-15.936l0-71.552 c0-8.768, 7.168-15.904, 15.936-15.904l 4.384,0 
			c 8.736,0, 15.936,7.136, 15.936,15.904l0,71.552 c0,8.768, 7.136,15.936, 15.872,15.936l 25.056,0 c 8.736,0, 15.904-7.168, 15.904-15.936l0-71.552 
			c0-8.768, 7.168-15.904, 15.904-15.904l 14.752,0 c 8.736,0, 15.936,7.136, 15.936,15.904l0,71.552 c0,8.768, 7.136,15.936, 15.872,15.936l 50.944,0 
			c 8.736,0, 15.936-7.168, 15.936-15.936l0-71.552 c0-8.768, 7.136-15.904, 15.872-15.904l 30.272,0 c 8.736,0, 15.904,7.136, 15.904,15.904L 790.176,870.048 z
			 M 479.84,787.36c0,8.736, 7.168,15.904, 15.936,15.904l 56.096,0 c 8.736,0, 15.904-7.168, 15.904-15.904l0-56.16 c0-8.736-7.168-15.904-15.904-15.904
			l-56.096,0 c-8.736,0-15.936,7.168-15.936,15.904L 479.84,787.36 z M 479.84,606.304c0,8.736, 7.168,15.904, 15.936,15.904l 56.096,0 
			c 8.736,0, 15.904-7.168, 15.904-15.904l0-50.976 c0-8.768-7.168-15.904-15.904-15.904l-56.096,0 c-8.736,0-15.936,7.136-15.936,15.904L 479.84,606.304 z
			 M 479.84,430.432c0,8.736, 7.168,15.904, 15.936,15.904l 56.096,0 c 8.736,0, 15.904-7.168, 15.904-15.904l0-56.128 c0-8.736-7.168-15.904-15.904-15.904
			l-56.096,0 c-8.736,0-15.936,7.168-15.936,15.904L 479.84,430.432 z M 479.84,249.376c0,8.768, 7.168,15.904, 15.936,15.904l 56.096,0 
			c 8.736,0, 15.904-7.136, 15.904-15.904l0-56.096 c0-8.768-7.168-15.904-15.904-15.904l-56.096,0 c-8.736,0-15.936,7.136-15.936,15.904L 479.84,249.376 z
			 M 402.24,193.28c0-8.768-7.168-15.904-15.904-15.904l-56.128,0 c-8.736,0-15.904,7.136-15.904,15.904l0,56.096 c0,8.768, 7.168,15.904, 15.904,15.904
			l 56.128,0 c 8.736,0, 15.904-7.136, 15.904-15.904L 402.24,193.28 z M 402.24,374.304c0-8.736-7.168-15.904-15.904-15.904l-56.128,0 
			c-8.736,0-15.904,7.168-15.904,15.904l0,56.128 c0,8.736, 7.168,15.904, 15.904,15.904l 56.128,0 c 8.736,0, 15.904-7.168, 15.904-15.904L 402.24,374.304 z
			 M 402.24,555.328c0-8.768-7.168-15.904-15.904-15.904l-56.128,0 c-8.736,0-15.904,7.136-15.904,15.904l0,50.976 c0,8.736, 7.168,15.904, 15.904,15.904
			l 56.128,0 c 8.736,0, 15.904-7.168, 15.904-15.904L 402.24,555.328 z M 402.24,731.232c0-8.736-7.168-15.904-15.904-15.904l-56.128,0 
			c-8.736,0-15.904,7.168-15.904,15.904L 314.304,787.36 c0,8.736, 7.168,15.904, 15.904,15.904l 56.128,0 c 8.736,0, 15.904-7.168, 15.904-15.904L 402.24,731.232 z
			 M 609.12,120.864c0-8.768-7.136-15.936-15.872-15.936l-138.912,0 c-8.736,0-15.904,7.168-15.904,15.936l0,9.536 
			c0,8.736, 7.168,15.904, 15.904,15.904l 138.912,0 c 8.736,0, 15.872-7.168, 15.872-15.904L 609.12,120.864 z M 728.128,193.28c0-8.768-7.2-15.904-15.936-15.904
			l-56.096,0 c-8.736,0-15.904,7.136-15.904,15.904l0,56.096 c0,8.768, 7.168,15.904, 15.904,15.904l 56.096,0 c 8.736,0, 15.936-7.136, 15.936-15.904L 728.128,193.28 z
			 M 728.128,374.304c0-8.736-7.2-15.904-15.936-15.904l-56.096,0 c-8.736,0-15.904,7.168-15.904,15.904l0,56.128 
			c0,8.736, 7.168,15.904, 15.904,15.904l 56.096,0 c 8.736,0, 15.936-7.168, 15.936-15.904L 728.128,374.304 z M 728.128,555.328c0-8.768-7.2-15.904-15.936-15.904
			l-56.096,0 c-8.736,0-15.904,7.136-15.904,15.904l0,50.976 c0,8.736, 7.168,15.904, 15.904,15.904l 56.096,0 c 8.736,0, 15.936-7.168, 15.936-15.904L 728.128,555.328 z
			 M 728.128,731.232c0-8.736-7.2-15.904-15.936-15.904l-56.096,0 c-8.736,0-15.904,7.168-15.904,15.904L 640.192,787.36 c0,8.736, 7.168,15.904, 15.904,15.904
			l 56.096,0 c 8.736,0, 15.936-7.168, 15.936-15.904L 728.128,731.232 zM 184.896,71.52c0,6.752-6.72,12.288-14.976,12.288c-8.224,0-14.944,7.168-14.944,15.904l0,0.896 
			c0,8.768, 6.72,15.904, 14.944,15.904c 8.224,0, 14.976,7.168, 14.976,15.904L 184.896,685.632 c0,8.768-7.168,15.904-15.936,15.904l-149.44,0 
			c-8.736,0-15.904-7.136-15.904-15.904l0-692.256 c0-8.768, 7.168-15.936, 15.904-15.936l 21.344,0 c 8.736,0, 15.904,7.168, 15.904,15.936l0,49.984 
			c0,8.768, 7.168,15.904, 15.936,15.904l 37.728,0 c 8.736,0, 15.904-7.136, 15.904-15.904l0-49.984 c0-8.768, 7.168-15.936, 15.936-15.936l 4.96,0 
			c 8.736,0, 15.904,7.168, 15.904,15.936l0,49.984 c0,8.768, 4.896,15.904, 10.88,15.904C 180,59.264, 184.896,64.768, 184.896,71.52z M 126.368,156.992
			c0-8.736-7.168-15.904-15.904-15.904L 72.704,141.088 c-8.736,0-15.936,7.168-15.936,15.904l0,37.728 c0,8.736, 7.168,15.904, 15.936,15.904l 37.728,0 
			c 8.736,0, 15.904-7.168, 15.904-15.904L 126.336,156.992 z M 126.368,300.192c0-8.736-7.168-15.904-15.904-15.904L 72.704,284.288 c-8.736,0-15.936,7.168-15.936,15.904
			L 56.768,337.92 c0,8.736, 7.168,15.904, 15.936,15.904l 37.728,0 c 8.736,0, 15.904-7.168, 15.904-15.904L 126.336,300.192 z M 126.368,443.328
			c0-8.736-7.168-15.904-15.904-15.904L 72.704,427.424 c-8.736,0-15.936,7.168-15.936,15.904l0,33.696 c0,8.736, 7.168,15.904, 15.936,15.904l 37.728,0 
			c 8.736,0, 15.904-7.168, 15.904-15.904L 126.336,443.328 z M 126.368,582.464c0-8.736-7.168-15.904-15.904-15.904L 72.704,566.56 c-8.736,0-15.936,7.168-15.936,15.904
			l0,37.76 c0,8.736, 7.168,15.904, 15.936,15.904l 37.728,0 c 8.736,0, 15.904-7.168, 15.904-15.904L 126.336,582.464 zM 839.104,71.52c0-6.752, 4.896-12.288, 10.848-12.288c 6.016,0, 10.912-7.136, 10.912-15.904l0-49.984 
			c0-8.768, 7.168-15.936, 15.904-15.936l 4.96,0 c 8.736,0, 15.904,7.168, 15.904,15.936l0,49.984 c0,8.768, 7.2,15.904, 15.936,15.904l 37.728,0 
			c 8.736,0, 15.904-7.136, 15.904-15.904l0-49.984 c0-8.768, 7.2-15.936, 15.936-15.936l 21.312,0 c 8.736,0, 15.936,7.168, 15.936,15.936L 1020.384,685.632 
			c0,8.768-7.2,15.904-15.936,15.904l-149.44,0 c-8.736,0-15.904-7.136-15.904-15.904l0-553.184 c0-8.736, 6.72-15.904, 14.976-15.904
			c 8.224,0, 14.944-7.136, 14.944-15.904l0-0.896 c0-8.736-6.72-15.904-14.944-15.904C 845.824,83.808, 839.104,78.272, 839.104,71.52z
			 M 897.632,194.72c0,8.736, 7.2,15.904, 15.936,15.904l 37.728,0 c 8.736,0, 15.904-7.168, 15.904-15.904l0-37.728 c0-8.736-7.168-15.904-15.904-15.904
			l-37.728,0 c-8.736,0-15.936,7.168-15.936,15.904L 897.632,194.72 z M 897.632,337.92c0,8.736, 7.2,15.904, 15.936,15.904l 37.728,0 
			c 8.736,0, 15.904-7.168, 15.904-15.904l0-37.728 c0-8.736-7.168-15.904-15.904-15.904l-37.728,0 c-8.736,0-15.936,7.168-15.936,15.904L 897.632,337.92 z
			 M 897.632,477.024c0,8.736, 7.2,15.904, 15.936,15.904l 37.728,0 c 8.736,0, 15.904-7.168, 15.904-15.904l0-33.696 c0-8.736-7.168-15.904-15.904-15.904
			l-37.728,0 c-8.736,0-15.936,7.168-15.936,15.904L 897.632,477.024 z M 897.632,620.224c0,8.736, 7.2,15.904, 15.936,15.904l 37.728,0 
			c 8.736,0, 15.904-7.168, 15.904-15.904l0-37.76 c0-8.736-7.168-15.904-15.904-15.904l-37.728,0 c-8.736,0-15.936,7.168-15.936,15.904L 897.632,620.224 z"  />
<glyph unicode="&#xe034;" d="M 814.080,941.216c0,8.8-7.2,16-16,16L 225.92,957.216 c-8.8,0-16-7.2-16-16l0-986.464 c0-8.8, 7.2-16, 16-16
		l 42.784,0 c 8.8,0, 16,7.2, 16,16l0,83.072 c0,8.8, 7.2,16, 16,16l 65.856,0 c 8.8,0, 16-7.2, 16-16l0-83.072 
		c0-8.8, 7.2-16, 16-16l 19.744,0 c 8.8,0, 16,7.2, 16,16l0,83.072 c0,8.8, 7.2,16, 16,16l 31.328,0 c 8.8,0, 16-7.2, 16-16
		l0-83.072 c0-8.8, 7.2-16, 16-16l 8.32,0 c 8.8,0, 16,7.2, 16,16l0,83.072 c0,8.8, 7.2,16, 16,16l 31.264,0 
		c 8.8,0, 16-7.2, 16-16l0-83.072 c0-8.8, 7.2-16, 16-16l 19.808,0 c 8.8,0, 16,7.2, 16,16l0,83.072 c0,8.8, 7.2,16, 16,16
		l 60.064,0 c 8.8,0, 16-7.2, 16-16l0-83.072 c0-8.8, 7.2-16, 16-16l 37.056,0 c 8.8,0, 16,7.2, 16,16L 814.144,941.216 z M 468.832,849.184
		c0,8.8, 7.2,16, 16,16l 65.824,0 c 8.8,0, 16-7.2, 16-16l0-65.856 c0-8.8-7.2-16-16-16l-65.824,0 c-8.8,0-16,7.2-16,16
		L 468.832,849.184 z M 468.832,647.776c0,8.8, 7.2,16, 16,16l 65.824,0 c 8.8,0, 16-7.2, 16-16l0-60.096 c0-8.8-7.2-16-16-16l-65.824,0 
		c-8.8,0-16,7.2-16,16L 468.832,647.776 z M 468.832,452.128c0,8.8, 7.2,16, 16,16l 65.824,0 c 8.8,0, 16-7.2, 16-16l0-65.824 
		c0-8.8-7.2-16-16-16l-65.824,0 c-8.8,0-16,7.2-16,16L 468.832,452.128 z M 468.832,250.688c0,8.8, 7.2,16, 16,16l 65.824,0 
		c 8.8,0, 16-7.2, 16-16l0-65.824 c0-8.8-7.2-16-16-16l-65.824,0 c-8.8,0-16,7.2-16,16L 468.832,250.688 z M 382.528,184.864
		c0-8.8-7.2-16-16-16L 300.672,168.864 c-8.8,0-16,7.2-16,16l0,65.824 c0,8.8, 7.2,16, 16,16l 65.856,0 c 8.8,0, 16-7.2, 16-16
		L 382.528,184.864 z M 382.528,386.304c0-8.8-7.2-16-16-16L 300.672,370.304 c-8.8,0-16,7.2-16,16l0,65.824 c0,8.8, 7.2,16, 16,16l 65.856,0 
		c 8.8,0, 16-7.2, 16-16L 382.528,386.304 z M 382.528,587.68c0-8.8-7.2-16-16-16L 300.672,571.68 c-8.8,0-16,7.2-16,16L 284.672,647.776 
		c0,8.8, 7.2,16, 16,16l 65.856,0 c 8.8,0, 16-7.2, 16-16L 382.528,587.68 z M 382.528,783.328c0-8.8-7.2-16-16-16L 300.672,767.328 
		c-8.8,0-16,7.2-16,16L 284.672,849.184 c0,8.8, 7.2,16, 16,16l 65.856,0 c 8.8,0, 16-7.2, 16-16L 382.528,783.328 z M 612.672,104.32
		c0-8.8-7.232-16-16-16l-157.92,0 c-8.8,0-16,7.2-16,16l0,14.048 c0,8.8, 7.2,16, 16,16l 157.92,0 c 8.768,0, 16-7.2, 16-16
		L 612.672,104.32 z M 745.024,184.864c0-8.8-7.2-16-16-16l-65.824,0 c-8.8,0-16,7.2-16,16l0,65.824 c0,8.8, 7.2,16, 16,16l 65.824,0 
		c 8.8,0, 16-7.2, 16-16L 745.024,184.864 z M 745.024,386.304c0-8.8-7.2-16-16-16l-65.824,0 c-8.8,0-16,7.2-16,16l0,65.824 
		c0,8.8, 7.2,16, 16,16l 65.824,0 c 8.8,0, 16-7.2, 16-16L 745.024,386.304 z M 745.024,587.68c0-8.8-7.2-16-16-16l-65.824,0 
		c-8.8,0-16,7.2-16,16L 647.2,647.776 c0,8.8, 7.2,16, 16,16l 65.824,0 c 8.8,0, 16-7.2, 16-16L 745.024,587.68 z M 745.024,783.328
		c0-8.8-7.2-16-16-16l-65.824,0 c-8.8,0-16,7.2-16,16L 647.2,849.184 c0,8.8, 7.2,16, 16,16l 65.824,0 c 8.8,0, 16-7.2, 16-16
		L 745.024,783.328 z"  />
<glyph unicode="&#xe035;" d="M 138.4-61.184l 607.040,0 c 64.544,0, 116.736,44, 119.008,98.848L 19.424,37.664 C 21.664-17.184, 73.92-61.184, 138.4-61.184zM 900.512,482.496c-17.504,0-33.952-4.064-48.864-10.944c 0.544,9.952, 0.864,17.152, 0.864,27.2
		c0,1.024-0.064,0.192-0.064,0.192L 9.504,498.944 c0,0-5.184-332.576, 211.68-428.32l 419.52,0 c 72.448,65.888, 131.296,126.432, 168.384,211.712
		c 21.728-26.784, 54.336-40.096, 91.392-40.096c 65.056,0, 118.048,55.040, 118.048,120.128C 1018.56,427.424, 965.568,482.496, 900.512,482.496z M 900.512,312.256
		c-28.768,0-52.192,23.392-52.192,52.192c0,28.736, 23.392,52.16, 52.192,52.16c 28.736,0, 52.16-23.392, 52.16-52.16
		C 952.672,335.648, 929.248,312.256, 900.512,312.256zM 376.928,766.848c-0.064-0.032, 21.056-11.808, 21.184-12.224c 24.832-14.24, 41.824-41.632, 41.824-72.448
		c0-37.152-24.64-68.672-58.272-79.104c-0.032-0.032-0.064-0.288-0.16-0.288c0,0, 63.008,1.152, 96.64,54.336
		c 5.888,9.28, 10.944,19.488, 13.184,31.68c 1.344,6.4, 2.304,12.992, 2.144,19.808c-1.568,57.504-36.448,74.944-40.928,78.144
		c-0.928,0.672-1.92,1.184-2.88,1.792c-1.056,0.704-28.096,15.712-28.256,16.16c-24.832,14.24-41.824,41.6-41.824,72.384
		c0,37.184, 24.64,68.672, 58.304,79.136c 0.032,0, 0.064,0.256, 0.128,0.256c0,0-93.056-8.384-109.792-86.048
		C 318.368,824.864, 341.024,785.728, 376.928,766.848zM 594.816,729.248c-0.032-0.064, 15.2-8.544, 15.264-8.8c 17.952-10.24, 30.112-30.016, 30.112-52.192
		c0-26.784-17.76-49.504-42.016-56.992c0,0-0.032-0.192-0.064-0.192c0,0, 45.376,0.832, 69.6,39.136c 4.224,6.688, 7.904,14.048, 9.472,22.848
		c 0.992,4.64, 1.696,9.376, 1.568,14.272c-1.12,41.44-26.24,54.016-29.504,56.32c-0.672,0.48-1.376,0.832-2.048,1.312
		c-0.736,0.48-20.256,11.328-20.384,11.616c-17.888,10.24-30.112,29.984-30.112,52.16c0,26.784, 17.792,49.472, 42.016,56.96
		c 0.064,0, 0.064,0.192, 0.128,0.224c0,0-67.072-6.016-79.136-62.016C 552.608,771.040, 568.928,742.848, 594.816,729.248zM 208.256,727.2C 208.192,727.168, 223.392,718.656, 223.488,718.368c 17.92-10.24, 30.144-30.016, 30.144-52.192
		c0-26.784-17.728-49.504-42.016-56.992c-0.032,0-0.032-0.192-0.064-0.192c0,0, 45.376,0.8, 69.6,39.136
		c 4.224,6.72, 7.872,14.048, 9.504,22.848c 0.96,4.608, 1.664,9.408, 1.536,14.272c-1.152,41.44-26.272,54.016-29.504,56.32
		C 262.016,742.016, 261.312,742.4, 260.64,742.88C 259.904,743.36, 240.384,754.176, 240.288,754.496c-17.92,10.24-30.144,29.984-30.144,52.128
		c0,26.816, 17.76,49.504, 42.016,56.992c 0.032,0.032, 0.064,0.192, 0.096,0.224c0,0-67.072-6.016-79.104-62.016
		C 166.048,768.96, 182.368,740.768, 208.256,727.2z"  />
<glyph unicode="&#xe036;" d="M 895.936,896L 128.992,896 C 93.856,896, 64,866.624, 64,831.456l0-766.912 C 64,29.376, 93.856,0, 128.992,0l 766.944,0 
		C 931.072,0, 960,29.376, 960,64.544L 960,831.456 C 960,866.624, 931.072,896, 895.936,896z M 790.272,354.4l-184.672,0 l0-184.704 l-184.672,0 l0,184.704 L 236.192,354.4 l0,184.672 l 184.704,0 
		L 420.896,723.776 l 184.672,0 l0-184.704 l 184.672,0 L 790.24,354.4 z"  />
<glyph unicode="&#xe037;" d="M 251.744,264.512c0-20.064-16.48-36.512-36.512-36.512L 151.392,228 c-20.096,0-36.512,16.448-36.512,36.512L 114.88,636.192 
		c0,20.064, 16.416,36.512, 36.512,36.512l 63.84,0 c 20.032,0, 36.512-16.448, 36.512-36.512L 251.744,264.512 zM 86.112,342.624c0-11.616-9.536-21.12-21.184-21.12L 27.968,321.504 c-11.616,0-21.12,9.504-21.12,21.12l0,215.424 
		c0,11.584, 9.504,21.12, 21.12,21.12l 36.96,0 c 11.648,0, 21.184-9.536, 21.184-21.12L 86.112,342.624 zM 772.288,264.512c0-20.064, 16.448-36.512, 36.512-36.512l 63.872,0 c 20.032,0, 36.48,16.448, 36.48,36.512L 909.152,636.192 
		c0,20.064-16.448,36.512-36.48,36.512l-63.872,0 c-20.064,0-36.512-16.448-36.512-36.512L 772.288,264.512 zM 937.952,342.624c0-11.616, 9.472-21.12, 21.12-21.12l 36.96,0 c 11.648,0, 21.12,9.504, 21.12,21.12l0,215.424 
		c0,11.584-9.472,21.12-21.12,21.12l-36.96,0 c-11.648,0-21.12-9.536-21.12-21.12L 937.952,342.624 zM 304.192,506.176L 710.080,506.176L 710.080,396.736L 304.192,396.736z"  />
<glyph unicode="&#xe038;" d="M 406.304,779.968l0-309.312 c 280.864,16.512, 521.856,317.76, 521.856,317.76C 795.776,675.936, 499.904,753.056, 406.304,779.968zM 343.872,9.76l0,142.464 L 343.872,811.904 c 31.2,13.568, 40.832,36.8, 41.76,63.2c 1.824,52.864-35.2,78.4-76.576,78.4
		c-41.344,0-71.936-36.576-71.936-78.4c0-27.712, 13.152-52, 44.352-65.152l0-666.464 l0-115.712 c-31.2,0.352-19.904,0.672-26.496,0.672
		c-67.264,0-125.344-20.064-125.344-44.864s 52.704-44.896, 120-44.896c 67.264,0, 126.88,20, 126.88,44.8
		C 376.512-6.72, 375.072,2.304, 343.872,9.76zM 590.080,24A66.624,66.624 180 1 1 723.328,24A66.624,66.624 180 1 1 590.080,24z"  />
<glyph unicode="&#xe039;" d="M 420.832,687.616L 126.016,687.616 c-17.664,0-31.776-14.784-31.776-32.48l0-160.672 c0-17.664, 14.112-32.064, 31.776-32.064l 294.848,0 L 420.864,687.616 z
		M 921.248,687.616l-286.784,0 l0-225.216 l 286.784,0 c 17.696,0, 32.096,14.4, 32.096,32.064L 953.344,655.168 
		C 953.344,672.832, 938.944,687.616, 921.248,687.616zM 420.832,418.272L 153.824,418.272 l0-409.824 c0-17.6, 14.784-32.128, 32.416-32.128l 234.624,0 l0,2.336 l0,0L 420.864,418.272 zM 634.464-21.312L 634.464-21.312l0-2.336 l 234.56,0 c 17.664,0, 32.448,14.528, 32.448,32.128L 901.472,418.272 l-267.008,0 L 634.464-21.312 zM 811.136,804.128c 10.528,21.536, 9.728,45.696-2.496,71.872c-15.104,32.288-36.512,45.024-51.712,50.112
		c-32.288,10.24-58.944-3.648-62.016-5.344L 691.616,918.72l-171.264-125.536L 349.152,918.72l-3.328,2.048C 342.848,922.464, 316.16,936.384, 283.904,926.112
		C 268.64,921.024, 247.328,908.288, 232.192,876C 219.968,849.824, 219.040,825.664, 229.568,804.128c 23.616-48.096, 96.096-71.264, 241.6-104.576l0-735.584 l 36.928,0 l 24.608,0 
		l 36.736,0 L 569.44,699.552 C 714.944,732.864, 787.488,756.032, 811.136,804.128z M 280.672,829.152C 279.616,831.36, 276.704,837.184, 283.584,851.936
		c 3.584,7.552, 9.536,17.28, 17.792,20.128c 0.32,0.16, 0.608,0.224, 0.832,0.32c 6.496,1.952, 13.184-0.16, 15.616-1.152l 155.328-113.824
		C 386.112,777.28, 294.4,801.184, 280.672,829.152z M 760.096,829.152c-13.76-27.968-105.472-51.872-192.48-71.744l 155.296,113.824
		c 2.496,0.992, 9.184,3.104, 15.68,1.152c 0.224-0.096, 0.512-0.16, 0.832-0.32c 8.224-2.848, 14.176-12.576, 17.76-20.128
		C 764.064,837.184, 761.184,831.36, 760.096,829.152z"  />
</font>
</defs>
</svg>
